Tutnet-fufla

Объявление

Введите здесь ваше объявление.

Информация о пользователе

Привет, Гость! Войдите или зарегистрируйтесь.


Вы здесь » Tutnet-fufla » Шансон в форм. lossless » Владимир Асмолов - Американский альбом‡(1991) Lossless&


Владимир Асмолов - Американский альбом‡(1991) Lossless&

Сообщений 1 страница 3 из 3

1

[24/96] Владимир Асмолов - Американский альбом (1991) Lossless


Оцифровка Борис 63  с винила

Код:
REM GENRE "Shanson"
REM DATE 1991
REM COMMENT "Оцифровка - Борис 63"
TITLE "Американский Альбом"
PERFORMER "Владимир Асмолов"
FILE "1.flac" WAVE
  TRACK 01 AUDIO
TITLE "Ой ты гой"
PERFORMER "Владимир Асмолов"
    INDEX 01 00:08:42
  TRACK 02 AUDIO
TITLE "Хочу в Америку"
PERFORMER "Владимир Асмолов"
    INDEX 01 03:53:21
  TRACK 03 AUDIO
TITLE "Не западло"
PERFORMER "Владимир Асмолов"
    INDEX 01 07:34:47
  TRACK 04 AUDIO
TITLE "Наши на Брайтоне"
PERFORMER "Владимир Асмолов"
    INDEX 01 11:01:56
  TRACK 05 AUDIO
TITLE "Америка"
PERFORMER "Владимир Асмолов"
    INDEX 01 14:50:25
FILE "2.flac" WAVE
  TRACK 06 AUDIO
TITLE "Духота"
PERFORMER "Владимир Асмолов"
    INDEX 01 00:07:70
  TRACK 07 AUDIO
TITLE "Я жил забот не зная"
PERFORMER "Владимир Асмолов"
    INDEX 01 03:54:30
  TRACK 08 AUDIO
TITLE "Поле чудес"
PERFORMER "Владимир Асмолов"
    INDEX 01 06:59:07
  TRACK 09 AUDIO
TITLE "Пророки"
PERFORMER "Владимир Асмолов"
    INDEX 01 11:38:55
  TRACK 10 AUDIO
TITLE "Вот и всё"
PERFORMER "Владимир Асмолов"
    INDEX 01 14:56:52
       

   
   

Ссылка FLAC+CUE:

https://yadi.sk/d/qbYVUrs_Trszg

mp3--320kbps:

https://yadi.sk/d/O6RRtWQDTrtFn

0

2

http://savepic.ru/12956604.png
http://savepic.ru/12947388.png

0

3

Со слов мите с вт его ссылки все заблокировал яндекс
в самое бл. время он всё востановит .Боря скинь мне запись я залью на обм. чтоб люди могли слушать муз.
До глубины души меня тронуло горе которое произошло с митей

0


Вы здесь » Tutnet-fufla » Шансон в форм. lossless » Владимир Асмолов - Американский альбом‡(1991) Lossless&