Гр.MAXI - Магнитоальбом (1990) Lossless

Оцифровка с катушки из личной коллекции
Борис 63

Залито двумя треками
Причина - Лента имеет склейку и на просвет Ревокс решил остановиться!!!

Первая песня во втором треке немного испорчена!
Качество записи ОТЛИЧНОЕ!


01. Малышка
02. Ещё люблю
03. Забываю
04. Алло
05. Барабашка
06. Нет, нет, нет
07. Милый мальчик
08. Рио-де-Жанейро
09. Незнакомка
10. Кто, если не ты
11. Свет в окне (НА-НА)
12. Последняя встреча (НА-НА)

REM GENRE "ПОП"
REM DATE 1990
REM COMMENT "Оцифровка - Борис 63"
PERFORMER "гр.MAXI"
TITLE "Магнитоальбом"
FILE "гр.MAXI - 1990.flac" WAVE
  TRACK 01 AUDIO
PERFORMER "гр.MAXI"
TITLE "Малышка"
    INDEX 01 00:00:00
  TRACK 02 AUDIO
PERFORMER "гр.MAXI"
TITLE "Ещё люблю"
    INDEX 01 03:15:73
  TRACK 03 AUDIO
PERFORMER "гр.MAXI"
TITLE "Забываю"
    INDEX 01 07:50:02
  TRACK 04 AUDIO
PERFORMER "гр.MAXI"
TITLE "Алло"
    INDEX 01 11:49:54
  TRACK 05 AUDIO
PERFORMER "гр.MAXI"
TITLE "Барабашка"
    INDEX 01 16:07:47
  TRACK 06 AUDIO
PERFORMER "гр.MAXI"
TITLE "Нет, нет, нет"
    INDEX 01 19:58:32
  TRACK 07 AUDIO
PERFORMER "гр.MAXI"
TITLE "Милый мальчик"
    INDEX 01 23:31:66
  TRACK 08 AUDIO
PERFORMER "гр.MAXI"
TITLE "Рио-де-Жанейро"
    INDEX 01 27:14:21
  TRACK 09 AUDIO
PERFORMER "гр.MAXI"
TITLE "Незнакомка"
    INDEX 01 33:04:46
  TRACK 10 AUDIO
PERFORMER "гр.MAXI"
TITLE "Кто, если не ты"
    INDEX 01 36:19:47
  TRACK 11 AUDIO
PERFORMER "НА-НА"
TITLE "Свет в окне"
    INDEX 01 40:20:22
  TRACK 12 AUDIO
PERFORMER "НА-НА"
TITLE "Последняя встреча"
    INDEX 01 44:54:42

FLAC+CUE:

http://yadi.sk/d/e7VVNU923S04u

FLAC (непорезанный):

http://yadi.sk/d/yxNVqxLS3QucA