Это интересно Скрыть

Tutnet-fufla

Объявление

Информация о пользователе

Привет, Гость! Войдите или зарегистрируйтесь.


Вы здесь » Tutnet-fufla » Музыка разных жанров » [32/192] Modern Talking - Коллекция‡1985-1987 [Lossless]&


[32/192] Modern Talking - Коллекция‡1985-1987 [Lossless]&

Сообщений 1 страница 3 из 3

1

[32/192] Modern Talking - Коллекция (6LP) - 1985-1987 [Lossless]

[32/192] Modern Talking - Коллекция (6LP) - 1985-1987

Жанр: EuroDisco
Носитель: LP
Год выпуска: 1985-1987
Лейбл: Hansa
Страна-производитель: Germany
Аудио кодек: WavPack
Тип рипа: image+.cue
Формат записи: 32/192
Формат раздачи: 32/192
Источник оцифровки: glot
Код класса состояния винила: NM, Mint, Ex+
Устройство воспроизведения: Rega RP3
Головка звукоснимателя: Rega Exact
Предварительный усилитель: Bryston B135SST
АЦП: Roland Quad-Capture
Программа-оцифровщик: Wavelab7
Обработка: no

(1985) The 1st Album

Продолжительность: 39:46.959 (458296178 samples)

Треклист:

01 Youґre My Heart Youґre My Soul
02 You Can Win If You Want
03 Thereґs Too Much Blue In Missing You
04 Diamonds Never Made A Lady
05 The Night Is Yours - The Night Is Mine
06 Do You Wanna
07 Lucky Guy
08 One In A Million
09 Bells Of Paris

https://yadi.sk/mail/?hash=78sem9vwtN+sw/lUSWDik+3ke4qeZXCCD5ZbfD9NVpk=
https://yadi.sk/mail/?hash=KtFATbaWCjt+c7eKs2OsVYzFAkNjOgzX5DrlaIPkQT8=

(1985) Let's Talk About Love

Продолжительность: 38:41.758 (445777496 samples)

Треклист:

01 Cheri Cheri Ladyl
02 With A Little Love
03 Wild Wild Water
04 You're The Lady Of My Heart
05 Just Like An Angel
06 Heaven Will Know
07 Love Don't Live Here Anymore
08 Why Did You Do It Just Tonight
09 Don't Give Up
10 Let's Talk About Love

https://yadi.sk/mail/?hash=X8vza6vfnACVL+flxXYM2agVUXEewNPCd8OTdv1U7dE=
https://yadi.sk/mail/?hash=/5wBS0spIGTSE0co18UgJh3U1CUYi2efIZpAv8kzLJU=

(1986) Ready For Romance

Продолжительность: 37:52.922 (436401088 samples)

Треклист:

01 Brother Louie
02 Just We Two (Mona Lisa)
03 Lady Lai
04 Doctor For My Heart
05 Save Me - Don't Break Me
06 Atlantis Is Calling (S.O.S. For Love)
07 Keep Love Alive
08 Hey You
09 Angie's Heart
10 Only Love Can Break My Heart

https://yadi.sk/mail/?hash=pO23G1VzZ0EsGdAwV56k/dkme8FtdXNqaV9rNtvl01k=
https://yadi.sk/mail/?hash=9ZYMlggH99w92WC7DuGyMNewzVPO8wdMdY2Nt/0lGsI=

(1986) In The Middle Of Nowhere

Продолжительность: 37:34.541 (432871883 samples)

Треклист:

01] Geronimo's Cadilac
02] Riding On A White Swan
03] Give Me Peace On Earth
04] Sweet Little Sheila
05] Ten Thousand Lonely Drums
06] Lonely Tears In Chinatown
07] In Shaire
08] Stranded In The Middle Of Nowhere
09] The Angels Sing In New York City
10] Princess Of The Night

https://yadi.sk/mail/?hash=WysnqUInz7zV1dX9XAorDHNzbxY3afk30+shqkxhBcI=
https://yadi.sk/mail/?hash=TYMhhk3kdJ3bcDLUiJhW0o8r6RL/VAC8F6jq3u5IlzM=

(1987) Romantic Warriors

Продолжительность: 38:06.010 (438913924 samples)

Треклист:

01 Jet Airliner
02 Like A Hero
03 Don't Worry
04 Blinded By Your Love
05 Romantic Warriors
06 Arabian Gold
07 We Still Have Dreams
08 Operator Gimme 609
09 You And Me
10 Charlene

https://yadi.sk/mail/?hash=yQF7BzWs5iXRosOCgwbpCEyQRBxwOpjYETYZ4UTf0os=
https://yadi.sk/mail/?hash=d5+TNWmMByiy0BONw9ybS7DE6BhyBP/DutxiXj8WoWE=

(1987) In The Garden Of Venus

Продолжительность: 33:55.590 (390833367 samples)

Треклист:

01 In 100 Years
02 Don't Let It Get You Down
03 Who Will Save The World
04 A Telegram To Your Heart
05 It's Christmas
06 Don't Lose My Number
07 Slow Motion
08 Locomotion Tango
09 Good Girls Go To Heaven - Bad Girls Go To Everywhere
10 In 100 Years (Reprise)

https://yadi.sk/mail/?hash=00AJWzH0M7KoupO79kmRr7eQc9kvjoT/flOajk87CBM= Windows 7, Chrome,62.0.3202.94

0

2

http://s9.uploads.ru/N0rgi.gif

0

3

(24/96) Modern Talking -Ready for romance- 1986 (lossless)

Оцифровка Супермодератора.с вт Борис 63 Смотрящий за форумом.
с кассеты
.

Modern Talking 1986 "Ready For Romance"

01. Brother Louie
02. Just We Two (Mona Lisa)
03. Lady Lai
04. Doctor For My Heart
05. Save Me - Don't Break Me
06. Atlantis Is Calling (S.O.S. For Love)
07. Keep Love Alive
08. Hey You
09. Angie's Heart
10. Only Love Can Break My Heart

ссылка

https://yadi.sk/mail/?hash=JMNCgx+NMzfemdX9BScDx/b0XND6OLV76Es0NPTClbM=&uid=423865181

REM GENRE "ПОП"
REM DATE 1986
REM COMMENT "Оцифровка - Борис 63"
TITLE "Ready For Romance"
PERFORMER "Modern Talking"
FILE "modern talking 86.flac" WAVE
  TRACK 01 AUDIO
TITLE "Brother Louie"
PERFORMER "Modern Talking"
    INDEX 01 00:00:00
  TRACK 02 AUDIO
TITLE "Just We Two"
PERFORMER "Modern Talking"
    INDEX 01 03:44:61
  TRACK 03 AUDIO
TITLE "Lady Lai"
PERFORMER "Modern Talking"
    INDEX 01 07:43:10
  TRACK 04 AUDIO
TITLE "Doctor For My Heart"
PERFORMER "Modern Talking"
    INDEX 01 12:43:21
  TRACK 05 AUDIO
TITLE "Save Me - Don't Break Me"
PERFORMER "Modern Talking"
    INDEX 01 16:05:26
  TRACK 06 AUDIO
TITLE "Atlantis Is Calling"
PERFORMER "Modern Talking"
    INDEX 01 19:52:23
  TRACK 07 AUDIO
TITLE "Keep Love Alive"
PERFORMER "Modern Talking"
    INDEX 01 23:42:24
  TRACK 08 AUDIO
TITLE "Hey You"
PERFORMER "Modern Talking"
    INDEX 01 27:10:61
  TRACK 09 AUDIO
TITLE "Angie's Heart"
PERFORMER "Modern Talking"
    INDEX 01 30:33:67
  TRACK 10 AUDIO
TITLE "Only Love Can Break My Heart"
PERFORMER "Modern Talking"
    INDEX 01 34:14:28

0


Вы здесь » Tutnet-fufla » Музыка разных жанров » [32/192] Modern Talking - Коллекция‡1985-1987 [Lossless]&