Это интересно Скрыть

Tutnet-fufla

Объявление

Информация о пользователе

Привет, Гость! Войдите или зарегистрируйтесь.


Вы здесь » Tutnet-fufla » Сборники шансон mp3 . Lossless » (24/96) Сборник старых блатных вещей‡(lossless)&


(24/96) Сборник старых блатных вещей‡(lossless)&

Сообщений 1 страница 2 из 2

1

(24/96) Сборник старых блатных вещей (lossless)

http://savepic.ru/13317812.jpg

https://yadi.sk/mail/?hash=yR2COFArECXa1DI0mCgqcGFfDMkBPz119pMFGj8NBeo=/x26uid=423865181/x26force_show=1&force_show=1

Трек лист от - 73Dimas

01.О грубым дается радость
02.Ты сидела и мечтала
03.Ох как хочется мне целоваться
04.Был открыт в кафе просторном
05. У нее все свое
06.Она на двор
07.Мяч затаился в стриженной траве
08.Теперь я не избавлюсь от покоя
09.Он был хирургом, даже нейро
10.До нашей эры
11.И фюрер кричал
12.Катерина, Катя, Катерина
13.Я в деле - и со мною нож
14.Пусть со мною ты
15.Ты меня не любишь не жалеешь
16.Девушку из маленькой таверны(обрыв)
17.Заметался пожар
18.Я усталым таким еще не был
19.Подруга охладевших лет
20.Когда бежал я из под Самары(Шаробан)
21.Сердце бьется
22.И по камешкам,по кирпичикам
23.Эх,чавелла(обрыв)

1-3 Ю.Миронов
4 боюсь ошибиться - сами попробуйте
5-13 А.Михайлов.
Дальше 14-23 Р.Кулиев - но последние минут 10 - опять эта загадка
с более поздним звуком. В 21 есть Вступление - но нет начала - головоломка.

0

2

Нет парни я напишу Спасибо Мод. с вт

Саша (beloborod)
Модератор

REM GENRE "Блат"
REM DATE 19??
REM COMMENT "Оцифровка - Борис 63"
TITLE "Магнитоальбом"
PERFORMER "Сборник старых блатных вещей"
FILE "блатные сборник.flac" WAVE
  TRACK 01 AUDIO
TITLE "О грубым дается радость"
PERFORMER "Ю.Миронов"
    INDEX 01 00:03:49
  TRACK 02 AUDIO
TITLE "Ты сидела и мечтала"
PERFORMER "Ю.Миронов"
    INDEX 01 01:30:27
  TRACK 03 AUDIO
TITLE "Ох как хочется мне целоваться"
PERFORMER "Ю.Миронов"
    INDEX 01 03:54:02
  TRACK 04 AUDIO
TITLE "Был открыт в кафе просторном"
PERFORMER "?????"
    INDEX 01 07:09:26
  TRACK 05 AUDIO
TITLE "У нее все свое"
PERFORMER "А.Михайлов"
    INDEX 01 09:46:10
  TRACK 06 AUDIO
TITLE "Она на двор"
PERFORMER "А.Михайлов"
    INDEX 01 13:23:54
  TRACK 07 AUDIO
TITLE "У домашних и хищных зверей"
PERFORMER "А.Михайлов"
    INDEX 01 14:57:73
  TRACK 08 AUDIO
TITLE "Мяч затаился в стриженной траве"
PERFORMER "А.Михайлов"
    INDEX 01 16:12:52
  TRACK 09 AUDIO
TITLE "Теперь я не избавлюсь от покоя"
PERFORMER "А.Михайлов"
    INDEX 01 19:05:70
  TRACK 10 AUDIO
TITLE "Сколько лет всё одно и то же"
PERFORMER "А.Михайлов"
    INDEX 01 20:36:05
  TRACK 11 AUDIO
TITLE "Он был хирургом, даже нейро"
PERFORMER "А.Михайлов"
    INDEX 01 21:43:68
  TRACK 12 AUDIO
TITLE "До нашей эры"
PERFORMER "А.Михайлов"
    INDEX 01 22:42:35
  TRACK 13 AUDIO
TITLE "И фюрер кричал"
PERFORMER "А.Михайлов"
    INDEX 01 24:17:29
  TRACK 14 AUDIO
TITLE "Катерина, Катя, Катерина"
PERFORMER "А.Михайлов"
    INDEX 01 24:59:11
  TRACK 15 AUDIO
TITLE "Я в деле - и со мною нож"
PERFORMER "А.Михайлов"
    INDEX 01 26:21:29
  TRACK 16 AUDIO
TITLE "Пусть со мною ты"
PERFORMER "Р.Кулиев"
    INDEX 01 27:49:14
  TRACK 17 AUDIO
TITLE "Ты меня не любишь не жалеешь"
PERFORMER "Р.Кулиев"
    INDEX 01 31:14:62
  TRACK 18 AUDIO
TITLE "Девушку из маленькой таверны"
PERFORMER "Р.Кулиев"
    INDEX 01 34:49:22
  TRACK 19 AUDIO
TITLE "Заметался пожар"
PERFORMER "Р.Кулиев"
    INDEX 01 39:35:31
  TRACK 20 AUDIO
TITLE "Я усталым таким еще не был"
PERFORMER "Р.Кулиев"
    INDEX 01 42:07:41
  TRACK 21 AUDIO
TITLE "Подруга охладевших лет"
PERFORMER "Р.Кулиев"
    INDEX 01 44:59:72
  TRACK 22 AUDIO
TITLE "Когда бежал я из под Самары"
PERFORMER "Р.Кулиев"
    INDEX 01 47:30:04
  TRACK 23 AUDIO
TITLE "Сердце бьется"
PERFORMER "Р.Кулиев"
    INDEX 01 49:19:07
  TRACK 24 AUDIO
TITLE "И по камешкам,по кирпичикам"
PERFORMER "Р.Кулиев"
    INDEX 01 51:41:25
  TRACK 25 AUDIO
TITLE "Эх,чавелла"
PERFORMER "Р.Кулиев"
    INDEX 01 54:16:40

0


Вы здесь » Tutnet-fufla » Сборники шансон mp3 . Lossless » (24/96) Сборник старых блатных вещей‡(lossless)&