Tutnet-fufla

Объявление

Введите здесь ваше объявление.

Информация о пользователе

Привет, Гость! Войдите или зарегистрируйтесь.


Вы здесь » Tutnet-fufla » Шансон в форм. lossless » Ахмед – Позабыты, позаброшены‡ (1997) Lossless&


Ахмед – Позабыты, позаброшены‡ (1997) Lossless&

Сообщений 1 страница 2 из 2

1

Все благодарности - Tolik38

Ахмед – Позабыты, позаброшены… (1997) Lossless

Исполнитель: Ахмед
Альбом: Позабыты, позаброшены…
Год записи: 1997
Формат: FLAC
Тип рипа: image+.cue
Битрейт аудио: lossless
Размер:294 mb
Время: 40:38

01. Позабыты, позаброшены
02. Муромским лесом
03. Моя дорогая
04. Письмо сыну
05. Дочь рыбака
06. Хулиган
07. Мадагаскар
08. Лимончики
09. Киса-Мурочка
10. Московские фонтаны

добавлено 3% на восстановление

  https://yadi.sk/d/9QAwiM_80ujBQ?force_show=1

0

2

Exact Audio Copy V0.99 prebeta 5 from 4. May 2009

Отчёт EAC об извлечении, выполненном 29. декабря 2009, 19:04

Ахмед / Позабыты, позаброшенны…

Дисковод: _NEC    DVD_RW ND-3500AG   Adapter: 3  ID: 0

Режим чтения                 : Достоверность
Использование точного потока : Да
Отключение кэша аудио        : Да
Использование указателей C2  : Нет

Коррекция смещения при чтении                     : 48
Способность читать области Lead-in и Lead-out     : Нет
Заполнение пропущенных сэмплов тишиной            : Да
Удаление блоков с тишиной в начале и конце        : Нет
При вычислениях CRC использовались нулевые сэмплы : Да
Интерфейс                                         : Установленный внешний ASPI-интерфейс

Выходной формат : Внутренние WAV-операции
Формат сэмплов  : 44.100 Гц; 16 бит; стерео

TOC извлечённого CD

     Трек |   Старт  | Длительность | Начальный сектор | Конечный сектор
    ---------------------------------------------------------------------
       1  |  0:00.00 |    3:38.60   |           0      |      16409     
       2  |  3:38.60 |    5:54.20   |       16410      |      42979     
       3  |  9:33.05 |    3:16.30   |       42980      |      57709     
       4  | 12:49.35 |    4:27.55   |       57710      |      77789     
       5  | 17:17.15 |    5:39.45   |       77790      |     103259     
       6  | 22:56.60 |    3:26.10   |      103260      |     118719     
       7  | 26:22.70 |    4:27.15   |      118720      |     138759     
       8  | 30:50.10 |    2:43.05   |      138760      |     150989     
       9  | 33:33.15 |    2:07.45   |      150990      |     160559     
      10  | 35:40.60 |    4:57.35   |      160560      |     182869     

Характеристики диапазона извлечения и сообщения об ошибках

Выбранный диапазон

     Имя файла C:\Documents and Settings\Admin\Рабочий стол\Ахмед\Позабыты, позаброшенны\Ахмед - Позабыты, позаброшенны….wav

     Пиковый уровень 100.0 %
     Качество диапазона 100.0 %
     CRC копии A12BF1AC
     Копирование... OK

Ошибок не произошло

Конец отчёта
...................................................

AUDIOCHECKER v2.0 beta (build 457) - by Dester - opdester@freemail.hu
~~~~~~~~~~~~~~~~~~~~~~~~~~~~~~~~~~

Начато: четверг, 04. 11. 2010. - 9:52.19
Найдено файлов: 1

1 -===- C:\Users\Microsoft\Desktop\Ахмед - 1997 - Позабыты, позаброшенны…\Ахмед - Позабыты, позаброшенны… .wav
  Заключение: этот трек - CDDA с вероятностью 100%

Завершено: четверг, 04. 11. 2010. - 9:55.30 (Время операции: 0:03.11)

0


Вы здесь » Tutnet-fufla » Шансон в форм. lossless » Ахмед – Позабыты, позаброшены‡ (1997) Lossless&