Tutnet-fufla

Объявление

Введите здесь ваше объявление.

Информация о пользователе

Привет, Гость! Войдите или зарегистрируйтесь.


Вы здесь » Tutnet-fufla » Музыка разных жанров » Non-Stop Vodka Dance‡Дурацкие песни о хитром&


Non-Stop Vodka Dance‡Дурацкие песни о хитром&

Сообщений 1 страница 4 из 4

1

Все благодарности - Jaxx

http://savepic.ru/13331051.png

Исполнитель: Non-Stop Vodka Dance
Альбом: Дурацкие песни о хитром
Год: 1997
Жанр: Шансон
Формат: mp3
Качество: 320
Размер: 108

Треклист:

01. Intro 1
02. Катюша
03. Intro 2
04. Мани-мани
05. Intro 3
06. Гранитный камешек
07. Intro 4
08. Жёлтые бананы
09. Intro 5
10. Ты ж мене пидманула
11. Intro 6
12. Чардаш по-соседски
13. Intro 7 00:24
14. Во клубе сегодня танцы
15. Штирлиц - REMIX
16. Intro 8
17. Братанская народная
18. Intro 9
19. Милицейская народная
20. Intro 10
21. Я лоха разведу руками
22. Intro 11
23. Рассеяный
24. Intro 12
25. Первоапрельские тезисы г-на Обломова

https://yadi.sk/d/qnm0EMUi3GMWPM

[audio]http://d.zaix.ru/3nWP.mp3[/audio]

0

2

http://savepic.ru/13315687.png

https://yadi.sk/mail/?hash=G7g9UE3u5+tePhgZGikVLX6ExHtEf/RU2/YSzJgw8sI=&uid=423865181&force_show=1

http://liubavyshka.ru/_ph/24/2/805316821.gif

REM GENRE "ШАНСОН"
REM DATE 1997
REM COMMENT "Оцифровка - Борис 63"
TITLE "Дурацкие песни о хитром"
PERFORMER " гр. Водопад"
FILE "Водопад 1.flac" WAVE
  TRACK 01 AUDIO
TITLE "Intro 1"
PERFORMER " гр. Водопад"
    INDEX 01 00:02:00
  TRACK 02 AUDIO
TITLE "Катюша"
PERFORMER " гр. Водопад"
    INDEX 01 01:51:47
  TRACK 03 AUDIO
TITLE "Intro 2"
PERFORMER " гр. Водопад"
    INDEX 01 03:46:07
  TRACK 04 AUDIO
TITLE "Мани-мани"
PERFORMER " гр. Водопад"
    INDEX 01 04:33:17
  TRACK 05 AUDIO
TITLE "Intro 3"
PERFORMER " гр. Водопад"
    INDEX 01 07:25:13
  TRACK 06 AUDIO
TITLE "Гранитный камешек"
PERFORMER " гр. Водопад"
    INDEX 01 08:27:02
  TRACK 07 AUDIO
TITLE "Intro 4"
PERFORMER " гр. Водопад"
    INDEX 01 09:27:26
  TRACK 08 AUDIO
TITLE "Желтые бананы"
PERFORMER " гр. Водопад"
    INDEX 01 10:06:05
  TRACK 09 AUDIO
TITLE "Intro 5"
PERFORMER " гр. Водопад"
    INDEX 01 12:31:51
  TRACK 10 AUDIO
TITLE "Ты ж мене пидманула"
PERFORMER " гр. Водопад"
    INDEX 01 13:03:21
  TRACK 11 AUDIO
TITLE "Intro 6"
PERFORMER " гр. Водопад"
    INDEX 01 15:15:32
  TRACK 12 AUDIO
TITLE "Чардаш по-соседски"
PERFORMER " гр. Водопад"
    INDEX 01 15:46:23
  TRACK 13 AUDIO
TITLE "Intro 7"
PERFORMER " гр. Водопад"
    INDEX 01 17:55:54
  TRACK 14 AUDIO
TITLE "Во клубе сегодня танцы"
PERFORMER " гр. Водопад"
    INDEX 01 18:18:59
  TRACK 15 AUDIO
TITLE "Штирлиц - REMIX"
PERFORMER " гр. Водопад"
    INDEX 01 20:46:67
  TRACK 16 AUDIO
TITLE "Intro 8"
PERFORMER " гр. Водопад"
    INDEX 01 22:07:47
  TRACK 17 AUDIO
TITLE "Братанская народная"
PERFORMER " гр. Водопад"
    INDEX 01 23:17:51
  TRACK 18 AUDIO
TITLE "Intro 9"
PERFORMER " гр. Водопад"
    INDEX 01 24:55:64
  TRACK 19 AUDIO
TITLE "Милицейская народная"
PERFORMER " гр. Водопад"
    INDEX 01 25:59:36
  TRACK 20 AUDIO
TITLE "Intro 10"
PERFORMER " гр. Водопад"
    INDEX 01 28:23:16
  TRACK 21 AUDIO
TITLE "Я лоха разведу руками"
PERFORMER " гр. Водопад"
    INDEX 01 29:02:55
  TRACK 22 AUDIO
TITLE "Intro 11"
PERFORMER " гр. Водопад"
    INDEX 01 30:06:56
  TRACK 23 AUDIO
TITLE "Рассеяный"
PERFORMER " гр. Водопад"
    INDEX 01 30:38:05
  TRACK 24 AUDIO
TITLE "Intro 12"
PERFORMER " гр. Водопад"
    INDEX 01 35:42:28
  TRACK 25 AUDIO
TITLE "Первоапрельские тезисы г-на Обломова"
PERFORMER " гр. Водопад"
    INDEX 01 36:20:65
  TRACK 26 AUDIO
TITLE "Инструментал"
PERFORMER " гр. Водопад"
    INDEX 01 41:13:16
  TRACK 27 AUDIO
TITLE "Инструментал 2"
PERFORMER " гр. Водопад"
    INDEX 01 42:31:61

0

3

http://savepic.ru/13326968.gif

[audio]http://d.zaix.ru/3nYp.mp3[/audio]

http://savepic.ru/13345402.png

0

4

Дождались счастья мы ребята .....

http://savepic.ru/13345392.png

https://yadi.sk/mail/?hash=3ADGkbBmU+1OiBaUrAs7RO00iamoGb6+87aHF/dIIwk=&uid=472422280&force_show=1

0


Вы здесь » Tutnet-fufla » Музыка разных жанров » Non-Stop Vodka Dance‡Дурацкие песни о хитром&