Это интересно Скрыть

Tutnet-fufla

Объявление

Информация о пользователе

Привет, Гость! Войдите или зарегистрируйтесь.


Вы здесь » Tutnet-fufla » Шансон в форм. lossless » Гарик Кричевский - Привокзальная


Гарик Кричевский - Привокзальная

Сообщений 1 страница 3 из 3

1

Гарик Кричевский - Привокзальная (1995) LossLess

Формат: FLAC, (image + .cue), lossless
Год выпуска: 1995
Страна: Украина
Жанр: Шансон
Продолжительность: 00:56:43

Описание:

01. Привокзальная
02. Номенклатурная дача
03. Плавают кораблики
04. Мой номер 245
05. Слезинки
06. Статуя свободы
07. Скрипач в законе
08. Русановка
09. Дубаи
10. По - осеннему
11. Под стук колёс
12. Коса
13. Одесса по Берлину
14. Осенний вечер

https://yadi.sk/d/KtTs3JzY3H6z9g

Доп. информация:

Музыка и стихи Гарик Кричевский

Exact Audio Copy V0.99 prebeta 4 from 23. January 2008

EAC extraction logfile from 11. January 2009, 6:28

Гарик Кричевский / Привокзальная

Used drive  : TSSTcorpCD/DVDW TS-L632D   Adapter: 1  ID: 0

Read mode               : Secure
Utilize accurate stream : Yes
Defeat audio cache      : Yes
Make use of C2 pointers : No

Read offset correction                      : 6
Overread into Lead-In and Lead-Out          : No
Fill up missing offset samples with silence : Yes
Delete leading and trailing silent blocks   : No
Null samples used in CRC calculations       : Yes
Used interface                              : Native Win32 interface for Win NT & 2000
Gap handling                                : Appended to previous track

Used output format              : User Defined Encoder
Selected bitrate                : 768 kBit/s
Quality                         : High
Add ID3 tag                     : Yes
Command line compressor         : C:\Program Files\Exact Audio Copy\Flac\flac.exe
Additional command line options : -8 -V -T "artist=%a" -T "title=%t" -T "album=%g" -T "date=%y" -T "tracknumber=%n" -T "genre=%m" -T comment="%e" -T "comment=HellraiserRG" %s

TOC of the extracted CD

     Track |   Start  |  Length  | Start sector | End sector
    ---------------------------------------------------------
        1  |  0:00.00 |  6:01.60 |         0    |    27134   
        2  |  6:01.60 |  4:18.19 |     27135    |    46503   
        3  | 10:20.04 |  3:38.43 |     46504    |    62896   
        4  | 13:58.47 |  3:37.50 |     62897    |    79221   
        5  | 17:36.22 |  4:29.41 |     79222    |    99437   
        6  | 22:05.63 |  3:08.69 |     99438    |   113606   
        7  | 25:14.57 |  4:32.18 |    113607    |   134024   
        8  | 29:47.00 |  3:45.62 |    134025    |   150961   
        9  | 33:32.62 |  3:26.10 |    150962    |   166421   
       10  | 36:58.72 |  5:09.29 |    166422    |   189625   
       11  | 42:08.26 |  2:52.63 |    189626    |   202588   
       12  | 45:01.14 |  3:43.20 |    202589    |   219333   
       13  | 48:44.34 |  3:57.61 |    219334    |   237169   
       14  | 52:42.20 |  3:12.27 |    237170    |   251596   

Track  1

     Filename C:\Гарик Кричевский - Привокзальная\01. привокзальная.wav

     Pre-gap length  0:00:02.00

     Peak level 62.9 %
     Track quality 100.0 %
     Copy CRC 17B6BE64
     Track not present in AccurateRip database
     Copy OK

Track  2

     Filename C:\Гарик Кричевский - Привокзальная\02. номенклатурная дача.wav

     Peak level 63.7 %
     Track quality 100.0 %
     Copy CRC 24C2B5A6
     Track not present in AccurateRip database
     Copy OK

Track  3

     Filename C:\Гарик Кричевский - Привокзальная\03. плавают кораблики.wav

     Peak level 59.0 %
     Track quality 100.0 %
     Copy CRC FE25300D
     Track not present in AccurateRip database
     Copy OK

Track  4

     Filename C:\Гарик Кричевский - Привокзальная\04. мой номер 245.wav

     Peak level 64.0 %
     Track quality 100.0 %
     Copy CRC D5EF0678
     Track not present in AccurateRip database
     Copy OK

Track  5

     Filename C:\Гарик Кричевский - Привокзальная\05. слезинки.wav

     Peak level 46.6 %
     Track quality 100.0 %
     Copy CRC CC9A17B3
     Track not present in AccurateRip database
     Copy OK

Track  6

     Filename C:\Гарик Кричевский - Привокзальная\06. статуя свободы.wav

     Pre-gap length  0:00:00.01

     Peak level 65.6 %
     Track quality 99.9 %
     Copy CRC B2F24CB3
     Track not present in AccurateRip database
     Copy OK

Track  7

     Filename C:\Гарик Кричевский - Привокзальная\07. скрипач в законе.wav

     Peak level 55.4 %
     Track quality 100.0 %
     Copy CRC B35EABAE
     Track not present in AccurateRip database
     Copy OK

Track  8

     Filename C:\Гарик Кричевский - Привокзальная\08. русановка.wav

     Peak level 68.3 %
     Track quality 100.0 %
     Copy CRC A107CBEA
     Track not present in AccurateRip database
     Copy OK

Track  9

     Filename C:\Гарик Кричевский - Привокзальная\09. дубай.wav

     Peak level 68.8 %
     Track quality 100.0 %
     Copy CRC C716B48B
     Track not present in AccurateRip database
     Copy OK

Track 10

     Filename C:\Гарик Кричевский - Привокзальная\10. по-осеннему.wav

     Peak level 63.8 %
     Track quality 100.0 %
     Copy CRC 37840D64
     Track not present in AccurateRip database
     Copy OK

Track 11

     Filename C:\Гарик Кричевский - Привокзальная\11. под стук колес.wav

     Peak level 48.8 %
     Track quality 100.0 %
     Copy CRC 89A76E92
     Track not present in AccurateRip database
     Copy OK

Track 12

     Filename C:\Гарик Кричевский - Привокзальная\12. коса.wav

     Pre-gap length  0:00:00.05

     Peak level 71.7 %
     Track quality 100.0 %
     Copy CRC 3F8FD1A7
     Track not present in AccurateRip database
     Copy OK

Track 13

     Filename C:\Гарик Кричевский - Привокзальная\13. Одесса по Берлину.wav

     Peak level 62.8 %
     Track quality 100.0 %
     Copy CRC 93E73CF4
     Track not present in AccurateRip database
     Copy OK

Track 14

     Filename C:\Гарик Кричевский - Привокзальная\14. осенний вечер.wav

     Peak level 68.3 %
     Track quality 100.0 %
     Copy CRC 7A442B83
     Track not present in AccurateRip database
     Copy OK

None of the tracks are present in the AccurateRip database

No errors occurred

End of status report

.................................

От сруля саломоновича крысы с вт

Гарик Кричевский - Привокзальная (1995) LossLess

Гарик Кричевский - Привокзальная (1995)

Жанр: Шансон
Аудио кодек: APE
Тип рипа: image+.cue
Битрейт аудио: lossless

Трэклист:

01. Привокзальная (6:05)
02. Номенклатурная дача (4:20)
03. Плавают кораблики (3:41)
04. Мой номер 245 (3:44)
05. Слезинки (4:33)
06. Статуя свободы (3:12)
07. Скрипач в законе (4:35)
08. Русановка (3:49)
09. Дубаи (3:31)
10. По-осеннему (5:12)
11. Под стук колес (3:05)
12. Коса (3:44)
13. Одесса по Берлину (4:00)
14. Осенний вечер (3:12)

https://yadi.sk/d/Bc3dkccF815T4?force_show=1

Exact Audio Copy V0.99 prebeta 3 from 28. July 2007

Отчёт EAC об извлечении, выполненном 23. декабря 2007, 20:47

Гарик Кричевский / Привокзальная

Дисковод: TSSTcorpCD/DVDW SH-S183L   Adapter: 1  ID: 0

Режим чтения                 : Достоверность
Использование точного потока : Да
Отключение кэша аудио        : Да
Использование указателей C2  : Нет

Коррекция смещения при чтении                     : 6
Способность читать области Lead-in и Lead-out     : Нет
Заполнение пропущенных сэмплов тишиной            : Да
Удаление блоков с тишиной в начале и конце        : Нет
При вычислениях CRC использовались нулевые сэмплы : Да
Интерфейс                                         : Установленный внешний ASPI-интерфейс

Выходной формат : Monkey's Audio Lossless Encoder v3.99 DLL
Формат сэмплов  : High Lossless Compression

TOC извлечённого CD

     Трек |   Старт  | Длительность | Начальный сектор | Конечный сектор
    ---------------------------------------------------------------------
       1  |  0:00.00 |    6:01.60   |           0      |      27134     
       2  |  6:01.60 |    4:18.19   |       27135      |      46503     
       3  | 10:20.04 |    3:38.43   |       46504      |      62896     
       4  | 13:58.47 |    3:37.50   |       62897      |      79221     
       5  | 17:36.22 |    4:29.41   |       79222      |      99437     
       6  | 22:05.63 |    3:08.69   |       99438      |     113606     
       7  | 25:14.57 |    4:32.18   |      113607      |     134024     
       8  | 29:47.00 |    3:45.62   |      134025      |     150961     
       9  | 33:32.62 |    3:26.10   |      150962      |     166421     
      10  | 36:58.72 |    5:09.29   |      166422      |     189625     
      11  | 42:08.26 |    2:52.63   |      189626      |     202588     
      12  | 45:01.14 |    3:43.20   |      202589      |     219333     
      13  | 48:44.34 |    3:57.61   |      219334      |     237169     
      14  | 52:42.20 |    3:12.27   |      237170      |     251596     

Характеристики диапазона извлечения и сообщения об ошибках

Выбранный диапазон

     Имя файла D:\MUSIC\Krichevski-Privokzalnaya[torrents.ru]\Гарик Кричевский - Привокзальная.ape

     Пиковый уровень 71.7 %
     Качество диапазона 100.0 %
     CRC копии 720F491F
     Копирование... OK

Ошибок не произошло

AccurateRip: сводка

0

2

Добрый вечер А.И.!!!
Спасибо за это!!! Дмитрию Витальевичу со своими скринами до Вас ещё далеко..................

=Spoiler написал(а):

Сообщение от Александр
Музыка и стихи Гарик Кричевский
Exact Audio Copy V0.99 prebeta 4 from 23. January 2008
EAC extraction logfile from 11. January 2009, 6:28
Гарик Кричевский / Привокзальная
Used drive  : TSSTcorpCD/DVDW TS-L632D   Adapter: 1  ID: 0
Read mode               : Secure
Utilize accurate stream : Yes
Defeat audio cache      : Yes
Make use of C2 pointers : No
Read offset correction                      : 6
Overread into Lead-In and Lead-Out          : No
Fill up missing offset samples with silence : Yes
Delete leading and trailing silent blocks   : No
Null samples used in CRC calculations       : Yes
Used interface                              : Native Win32 interface for Win NT & 2000
Gap handling                                : Appended to previous track
Used output format              : User Defined Encoder
Selected bitrate                : 768 kBit/s
Quality                         : High
Add ID3 tag                     : Yes
Command line compressor         : C:\Program Files\Exact Audio Copy\Flac\flac.exe
Additional command line options : -8 -V -T "artist=%a" -T "title=%t" -T "album=%g" -T "date=%y" -T "tracknumber=%n" -T "genre=%m" -T comment="%e" -T "comment=HellraiserRG" %s
TOC of the extracted CD
     Track |   Start  |  Length  | Start sector | End sector
    ---------------------------------------------------------
        1  |  0:00.00 |  6:01.60 |         0    |    27134   
        2  |  6:01.60 |  4:18.19 |     27135    |    46503   
        3  | 10:20.04 |  3:38.43 |     46504    |    62896   
        4  | 13:58.47 |  3:37.50 |     62897    |    79221   
        5  | 17:36.22 |  4:29.41 |     79222    |    99437   
        6  | 22:05.63 |  3:08.69 |     99438    |   113606   
        7  | 25:14.57 |  4:32.18 |    113607    |   134024   
        8  | 29:47.00 |  3:45.62 |    134025    |   150961   
        9  | 33:32.62 |  3:26.10 |    150962    |   166421   
       10  | 36:58.72 |  5:09.29 |    166422    |   189625   
       11  | 42:08.26 |  2:52.63 |    189626    |   202588   
       12  | 45:01.14 |  3:43.20 |    202589    |   219333   
       13  | 48:44.34 |  3:57.61 |    219334    |   237169   
       14  | 52:42.20 |  3:12.27 |    237170    |   251596   
Track  1
     Filename C:\Гарик Кричевский - Привокзальная\01. привокзальная.wav
     Pre-gap length  0:00:02.00
     Peak level 62.9 %
     Track quality 100.0 %
     Copy CRC 17B6BE64
     Track not present in AccurateRip database
     Copy OK
Track  2
     Filename C:\Гарик Кричевский - Привокзальная\02. номенклатурная дача.wav
     Peak level 63.7 %
     Track quality 100.0 %
     Copy CRC 24C2B5A6
     Track not present in AccurateRip database
     Copy OK
Track  3
     Filename C:\Гарик Кричевский - Привокзальная\03. плавают кораблики.wav
     Peak level 59.0 %
     Track quality 100.0 %
     Copy CRC FE25300D
     Track not present in AccurateRip database
     Copy OK
Track  4
     Filename C:\Гарик Кричевский - Привокзальная\04. мой номер 245.wav
     Peak level 64.0 %
     Track quality 100.0 %
     Copy CRC D5EF0678
     Track not present in AccurateRip database
     Copy OK
Track  5
     Filename C:\Гарик Кричевский - Привокзальная\05. слезинки.wav
     Peak level 46.6 %
     Track quality 100.0 %
     Copy CRC CC9A17B3
     Track not present in AccurateRip database
     Copy OK
Track  6
     Filename C:\Гарик Кричевский - Привокзальная\06. статуя свободы.wav
     Pre-gap length  0:00:00.01
     Peak level 65.6 %
     Track quality 99.9 %
     Copy CRC B2F24CB3
     Track not present in AccurateRip database
     Copy OK
Track  7
     Filename C:\Гарик Кричевский - Привокзальная\07. скрипач в законе.wav
     Peak level 55.4 %
     Track quality 100.0 %
     Copy CRC B35EABAE
     Track not present in AccurateRip database
     Copy OK
Track  8
     Filename C:\Гарик Кричевский - Привокзальная\08. русановка.wav
     Peak level 68.3 %
     Track quality 100.0 %
     Copy CRC A107CBEA
     Track not present in AccurateRip database
     Copy OK
Track  9
     Filename C:\Гарик Кричевский - Привокзальная\09. дубай.wav
     Peak level 68.8 %
     Track quality 100.0 %
     Copy CRC C716B48B
     Track not present in AccurateRip database
     Copy OK
Track 10
     Filename C:\Гарик Кричевский - Привокзальная\10. по-осеннему.wav
     Peak level 63.8 %
     Track quality 100.0 %
     Copy CRC 37840D64
     Track not present in AccurateRip database
     Copy OK
Track 11
     Filename C:\Гарик Кричевский - Привокзальная\11. под стук колес.wav
     Peak level 48.8 %
     Track quality 100.0 %
     Copy CRC 89A76E92
     Track not present in AccurateRip database
     Copy OK
Track 12
     Filename C:\Гарик Кричевский - Привокзальная\12. коса.wav
     Pre-gap length  0:00:00.05
     Peak level 71.7 %
     Track quality 100.0 %
     Copy CRC 3F8FD1A7
     Track not present in AccurateRip database
     Copy OK
Track 13
     Filename C:\Гарик Кричевский - Привокзальная\13. Одесса по Берлину.wav
     Peak level 62.8 %
     Track quality 100.0 %
     Copy CRC 93E73CF4
     Track not present in AccurateRip database
     Copy OK
Track 14
     Filename C:\Гарик Кричевский - Привокзальная\14. осенний вечер.wav
     Peak level 68.3 %
     Track quality 100.0 %
     Copy CRC 7A442B83
     Track not present in AccurateRip database
     Copy OK
None of the tracks are present in the AccurateRip database
No errors occurred
End of status report

0

3

0


Вы здесь » Tutnet-fufla » Шансон в форм. lossless » Гарик Кричевский - Привокзальная