Tutnet-fufla

Объявление

Введите здесь ваше объявление.

Информация о пользователе

Привет, Гость! Войдите или зарегистрируйтесь.


Вы здесь » Tutnet-fufla » Отечественный шансон.Авторская песня » В.Высоцкий - Натянутый канат, 1977‡Remastered by Sergio N90&


В.Высоцкий - Натянутый канат, 1977‡Remastered by Sergio N90&

Сообщений 1 страница 24 из 24

1

Исполнитель: Владимир Высоцкий
Альбом: Натянутый канат
Год выхода: 1977
Исходник: личный CD
Источник раздачи: HD Recorder
Ремастеринг: DIATONstudio
Обработка: SBMPro, LinearPhase, 24bit
Воспроизведение: SONY CDP-761SE
Запись: YAMAHA CDR-HD1500SE
Аудио-кодек записи: WAV
Аудио-битрейт записи: 24/44100
Аудио-кодек раздачи: FLAC
Аудио-битрейт раздачи: 16/44100
Продолжительность: 44:11
Тип рипа: треки (*.cue нет)
Размер архива: 290 мб
""""""""""""""""""""""""""""""""""""
Треклист:
01. Диалог у телевизора
02. Протопи ты мне баньку по-белому
03. Баллада о правде и лжи
04. Канатоходец
05. Баллада о детстве
06. Две судьбы
07. Тот, кто раньше с нею был
08. Бег иноходца
09. На Большом Каретном
10. Rien Ne Va, Plus Rien Ne Va
11. La Fin Du Bal
""""""""""""""""""""""""""""""""""""
Загружено на Яндекс.Диск
https://yadi.sk/d/2CSu6GDO3LPpLh
http://sa.uploads.ru/t/kxeXR.jpg

0

2

Сообщение для Sergio N90 Спасибо

0

3

А после Polydor-Diatonstudio аккуратно прошлась напильником?   Ну вам самому не смешно?

0

4

Да, тоже кажется вначале, что смешно. Потом, при синхронном сравнении (и с одинаковыми по уровню воспроизведения сигналами), смех сразу прекращается и приходит понимание - зачем и почему.

0

5

Сообщение для Братиславский Здравствуйте ... Скажите пож. Васчто не устраивает Я плохо понял насчёт напильника.............

0

6

Но ведь это ваше субъективное мнение, а не последняя инстанция.
Ваши уши - эталон??(ничего личного), а издатели глухие и некомпетентные.???
Ваши ремастеринги отлично поют на аппаратуре уровня муз.центров, но на чем то более дорогом они блеклые.
Но,дело не в этом. Просто интересно, почему вы это делаете,и как это связано с переделкой аппаратуры,о чем сказано в вашем профиле...Вам просто нравится все переделывать, при этом, как бы всё улучшая??
Кто вам сказал, что после вас все становится лучше.. Десятки поклонников вашего ремастеринга(аппаратуру не слушал,не знаю)??

0

7

Ссылку предоставил большой друг этого ресурса Сруль Саломонович с вт

В.C. Высоцкий - Натянутый Канат lossless (APE image+.cue)
Владимиру Высоцкому исполнился бы сегодня 71 год
Исполнитель: В.C.Высоцкий
Год выпуска: 1996
Качество: lossless EAC (APE image+.cue)
Covers

Playlist files:

1. Диалог у телевизора (03:28)
2. Протопи ты мне баньку по-белому (07:38)
3. Баллада о правде и лжи (04:21)
4. Канатоходец (03:37)
5. Баллада о детстве (05:26)
6. Две судьбы (05:11)
7. Тот, кто раньше нею был (02:46)
8. Бег иноходца (02:17)
9. На Большом Каретном (02:11)
10. Rien ne va, plus rien ne va (03:49)
11. La fin du bal (04:08)

Размер архива: 252 мб в т.ч. 3% recovery
Время: 44 min 51 sec

https://yadi.sk/d/y2xq-nEo0UprM

0

8

Exact Audio Copy V0.99 prebeta 4 from 23. January 2008

Отчёт EAC об извлечении, выполненном 9. июня 2008, 0:50

Владимир Высоцкий / Натянутый Канат

Дисковод: PIONEER DVD-RW  DVR-212D   Adapter: 5  ID: 0

Режим чтения                 : Достоверность
Использование точного потока : Да
Отключение кэша аудио        : Да
Использование указателей C2  : Нет

Коррекция смещения при чтении                     : 48
Способность читать области Lead-in и Lead-out     : Нет
Заполнение пропущенных сэмплов тишиной            : Да
Удаление блоков с тишиной в начале и конце        : Нет
При вычислениях CRC использовались нулевые сэмплы : Да
Интерфейс                                         : Установленный внешний ASPI-интерфейс

Выходной формат : Monkey's Audio Lossless Encoder v3.99 DLL
Формат сэмплов  : Normal Lossless Compression

TOC извлечённого CD

     Трек |   Старт  | Длительность | Начальный сектор | Конечный сектор
    ---------------------------------------------------------------------
       1  |  0:00.00 |    3:27.42   |           0      |      15566     
       2  |  3:27.42 |    7:38.20   |       15567      |      49936     
       3  | 11:05.62 |    4:21.10   |       49937      |      69521     
       4  | 15:26.72 |    3:37.30   |       69522      |      85826     
       5  | 19:04.27 |    5:26.23   |       85827      |     110299     
       6  | 24:30.50 |    5:10.72   |      110300      |     133621     
       7  | 29:41.47 |    2:45.53   |      133622      |     146049     
       8  | 32:27.25 |    2:17.37   |      146050      |     156361     
       9  | 34:44.62 |    2:10.63   |      156362      |     166174     
      10  | 36:55.50 |    3:48.40   |      166175      |     183314     
      11  | 40:44.15 |    4:07.52   |      183315      |     201891     

Характеристики диапазона извлечения и сообщения об ошибках

Выбранный диапазон

     Имя файла C:\EAC\Владимир Высоцкий - Натянутый Канат.ape

     Пиковый уровень 100.0 %
     Качество диапазона 100.0 %
     CRC теста 0602CBE5
     CRC копии 0602CBE5
     Копирование... OK

Ошибок не произошло

AccurateRip: сводка

Трек  1  точное извлечение (доверие 2)  [46B9F21E]
Трек  2  точное извлечение (доверие 2)  [1C692FC0]
Трек  3  точное извлечение (доверие 2)  [A5000C36]
Трек  4  точное извлечение (доверие 2)  [70DC4A79]
Трек  5  точное извлечение (доверие 2)  [CC96D5F9]
Трек  6  точное извлечение (доверие 2)  [1C41F9C0]
Трек  7  точное извлечение (доверие 2)  [2E8449C1]
Трек  8  точное извлечение (доверие 2)  [6728770F]
Трек  9  точное извлечение (доверие 2)  [4E228A0E]
Трек 10  точное извлечение (доверие 2)  [918521BE]
Трек 11  точное извлечение (доверие 2)  [0E724B41]

Все треки извлечены точно

Конец отчёта

0

9

Сообщение для Братиславский Для начала немного Флуда..... Знаете в чём разница между этим ресурсом и другими ???? Ответьте пож.
Теперь скажите Где рел. хоть раз написал что его ремас. Лучше ????? Он делится тем что имеет Ему инт. работать со звуком и Это не мальчик и
не пиарщик.... И в первую очередь делает для себя а потом делится с нами . и никто не в праве его оскорблять Я вижу Вы воспитаннный человек Так давайте не превращать форум этот в подобия где дол...ы пиарятся воруя чужое Ну Вы поняли меня . Извините за резкость .... И на последок ..... Может быть Вы поделитесь только одной песней в испол. В.С .................... Шнырит Ука ..................

0

10

http://sd.uploads.ru/y3ArF.png
Сообщение для Братиславский Хотите я залью вотэтот вар....Потом укажу источник Мы с Вамипойдём на указанный ресурс и посмотрим через сколько нас с Вами забанят ....Но нам с вами придётся выучить идиш

Исполнитель: Высоцкий Владимир
Альбом: Натянутый канат
Год выпуска: 1977
Время звучания: 00:44:00
Жанр: Авторская песня
Формат: WAV
Качество: Lossless
Количество треков: 12
Размер архива: 454 Mb мб

0

11

Братиславский, странный какой-то диалог... Хотелось бы конкретики... вот трек оригинала, вот после "напильника", здесь так, а здесь так. Музцентры... Откуда Вы знаете как мои ремастеры звучат на музцентрах? Конкретно этот альбом делал для друга, по его просьбе, с фирменного диска в картонной коробке. Он его потом слушал на технике в салоне HighEnd, сказал что звук "полный пи...ц, Высоцкий как живой".... Я как бы не могу не верить человеку...
Вы вообще кто? В чём проблема? Не нравится - не слушаем. Всё просто.

0

12

Сообщение для Sergio N90 Я могу ответить .... Мы попросим Братиславского показать на видео на чём он слушает..... Я на ютуб залью с коментариями потом .... А пиз...ь не мешки ворочить .... Мне вот дали катушку . Жду когда мне мой РОСТОВ новый привезут .....

0

13

Сержио,чёрт его знает, может вы и правы..
Конечно,каждый имеет своё видение,точнее ,,слушание,,.
Да,я и не говорил, что ваш вариант плохо поёт, меня интересовало совсем другое.
Впредь постараюсь не высказывать...не хотел задеть ваше реноме.

0

14

Сообщение для Братиславский Здравствуйте ..... Я Вам скажу Вы не огорчайтесь .... Самое дорогое в жизниэто  -  чел. глупость . Порой мы платим самой дорогой ценой.... Так Вот я против любых оскорблений только в споре можно найти  компромис и истину. Вы высказали своё мнение и никто тут вам не в праве рот затыкать . Одна просьба Давайте как то ну по скромнее и все будут счастливы Извините есоли огорчил. В споре истина а не в оскорблениях и Поверьте мне тут я не позволю оскорблять любого польз и гостя . Не получится сведу на нет Что каждый остался при своём мнении Спасибо .....................

0

15

Ну,о том какой вы грозный, я тут уже читал немало.
Зря видимо зарегистрировался...

0

16

Сообщение для Sergio N90
корректировка уровня каждого трека к улучшению звучания не прибавляет

#p44063,Sergio N90 написал(а):

Откуда Вы знаете как мои ремастеры звучат на музцентрах?

подгонять тогда надо именно под каждый центр. так как они имеют разную АЧХ
Рокот вертушки не удалял так как муз центр не воспроизводит
А главное у всех слух разный и тембр каждый подгоняет под себя

Проанализировано: Владимир Высоцкий / Натянутый канат
--------------------------------------------------------------------------------

DR       Пик         RMSДлина    Трек
--------------------------------------------------------------------------------
DR13      -0.41 дБ   -15.94 дБ      3:24 ?-Диалог у телевизора
DR12      -0.20 дБ   -15.92 дБ      7:36 ?-Протопи ты мне баньку по-белому
DR12      -1.17 дБ   -16.39 дБ      4:19 ?-Баллада о правде и лжи
DR14      -0.82 дБ   -16.40 дБ      3:31 ?-Канатоходец
DR13      -0.94 дБ   -15.58 дБ      5:25 ?-Баллада о детстве
DR11      -0.98 дБ   -14.91 дБ      5:08 ?-Две судьбы
DR13      -0.67 дБ   -16.03 дБ      2:43 ?-Тот, кто раньше с нею был
DR14      -0.84 дБ   -17.46 дБ      2:16 ?-Бег иноходца
DR13      -1.24 дБ   -15.76 дБ      2:02 ?-На Большом Каретном
DR13      -2.12 дБ   -19.49 дБ      3:43 ?-Rien Ne Va, Plus Rien Ne Va
DR13      -1.29 дБ   -17.58 дБ      4:04 ?-La Fin Du Bal
--------------------------------------------------------------------------------

Количество треков: 11
Официальное значение DR: DR13

Частота дискретизации:  44100 Гц
Каналов:                2
Бит на сэмпл:           16
Битрейт:                974 kbps
Кодек:                  FLAC

СКАЧАТЬ   https://dropmefiles.com/21Cqx

Отредактировано paveltmb68 (2019-01-21 11:24:12)

0

17

Довольно неплохая оцифровка, звук чем-то похож на мой вариант с компакт-диска. Отличия небольшие - здесь больше DR на один децибел, это плюс. Минусов практически нет, могу только отметить только сибилянты у солиста, заниженный уровень низов и лёгкий "коробчатый" окрас звука. Но это не исправить - винил.
Теперь об уровне громкости звучания альбомов вообще (треков). Утверждение, что уровень громкости не влияет на качество воспроизведения  это глубочайшее заблуждение. Не буду вдаваться в тонкости, напишу лишь что влияет и ещё как и не по одному критерию, а по нескольким. Тот, кто берётся за оцифровки, должен это знать "как Отче наш". Это особенности как цифровой звукозаписи, так и аналогового воспроизведения.
Коррекция АЧХ записей под конкретную аудиотехнику допустима, но ТОЛЬКО для себя, не для всеобщего доступа. Хотя, в целом, это происходит ВСЕГДА, даже без желаний оцифровщиков. Новая головка - коррекция, новый корректор - коррекция.... и т.д.

0

18

#p44104,Sergio N90 написал(а):

Довольно неплохая оцифровка, звук чем-то похож на мой вариант с компакт-диска.

Это и есть ваша  :crazyfun:

Что такое тонкомпенсированный регулятор громкости, примеры схем

http://audiogeek.ru/tonkompens-regulyator-gromkosti/

Отредактировано paveltmb68 (2019-01-21 17:02:17)

0

19

Да, именно и про влияние ТК на воспроизведение можно говорить...
Насчёт "это и есть ваша" не понял. Я скачал вариант из последей ссылки и описывал его особенности (ссылка Ваша).

0

20

http://sg.uploads.ru/t/dmcHf.jpg
Сообщение для Sergio N90
я взял вашу ссылку и убрал рокот от виниловой вертушки

Отредактировано paveltmb68 (2019-01-21 17:48:50)

0

21

Здорово! Рокот откуда появился, если на CD писалась музыка с мастер-ленты?! Нет слов...

0

22

Уж чего, а рокота с mastertape интересно былл бы услышать

0

23

#p44109,Sergio N90 написал(а):

Здорово! Рокот откуда появился, если на CD писалась музыка с мастер-ленты?! Нет слов...

хоть  винил или магнитофон аналоговый то он всегда будет иметь рокот.
смотри в словаре РОКОТ

0

24

Можно диспут сворачивать...

0


Вы здесь » Tutnet-fufla » Отечественный шансон.Авторская песня » В.Высоцкий - Натянутый канат, 1977‡Remastered by Sergio N90&