Tutnet-fufla

Объявление

Введите здесь ваше объявление.

Информация о пользователе

Привет, Гость! Войдите или зарегистрируйтесь.


Вы здесь » Tutnet-fufla » Отечественный шансон.Авторская песня » А. Северный с анс. "6+1", 1978‡Remastered by Sergio N90&


А. Северный с анс. "6+1", 1978‡Remastered by Sergio N90&

Сообщений 1 страница 3 из 3

1

Исполнитель: Аркадий Северный
Альбом: с ансамблем "6+1"
Год выхода: 1978
Исходник: личные CD
Источник раздачи: HD Recorder
Ремастеринг: DIATONstudio
Обработка: SBMPro, LinearPhase, NoPause, 24bit
Воспроизведение: SONY DVP-NS930VSE
Запись: YAMAHA CDR-HD1500SE
Аудио-кодек записи: WAV
Аудио-битрейт записи: 24/44,1
Аудио-кодек раздачи: FLAC
Аудио-битрейт раздачи: 16/44,1
Продолжительность: 64:52, 64:48
Тип рипа: треки (*.cue нет)
Размер архива: 874 мб
""""""""""""""""""""""""""""""""""""
Треклист:
01. Вступление
02. Пою невзгоду всему народу
03. Ветер, не пой мне печальную песню
04. Ой, братцы, как боюсь я тех машин
05. Моей печали нет конца
06. Она была первой, первой, первой
07. Где ты, юность моя, где пора золотая
08. Глаз твоих всегдашняя усталость
09. Не сердись, если я не права
10. Порой бывает трудный час
11. Проснулся я, а город еще спит
12. В бардовом зале "Журавли" играют музыканты
""""""""""""""""""""""""""""""""""""
01. Мама, мама, мама дорогая, прости, что воровку на свет родила
02. Вот и пришел тот конец нашей долгой разлуки
03. Ты закрой ресницы, милая моя
04. Ты не грусти, что на дворе уж осень серая
05. Вдоль по речке-речке утки плавают
06. Жалко ты не видишь, не догонишь
07. Отцвела черемуха в который раз
08. Дни уходят от нас чередой и виски уж покрыты сединой
09. Вечер над Одессой проплывает
10. По спиралям шоссе, по горам и лесам
11. Почему-то опять я тебя вспоминаю
12. Ты мне не снилась в моих мечтах
13. Помнишь двор занесенный снегом белым пушистым
14. Повстречал я девчонку смешную
""""""""""""""""""""""""""""""""""""
Загружено на Яндекс.Диск
https://yadi.sk/d/SpPWepnM3NoGJM
http://s2.uploads.ru/t/8UHzp.jpg

0

2

Сообщение для Sergio N90 Спасибо инт. щас скачаю

0

3

Analyzed: Аркадий Северный с анс. '6+1', 1978, Remastered by Sergio N90\CD1
----------------------------------------------------------------------------------------------
DR       Peak         RMS      Filename
----------------------------------------------------------------------------------------------

DR15   -0.00 dB -19.35 dB 01. Вступление.flac
DR12   -0.00 dB -15.40 dB 02. Пою невзгоду всему народу.flac
DR12   -0.00 dB -16.27 dB 03. Ветер, не пой мне печальную песню.flac
DR11   -0.00 dB -14.51 dB 04. Ой, братцы, как боюсь я тех машин.flac
DR12   -0.00 dB -14.70 dB 05. Моей печали нет конца.flac
DR13   -0.00 dB -14.18 dB 06. Она была первой, первой, первой.flac
DR12   -0.00 dB -15.44 dB 07. Где ты, юность моя, где пора золотая.flac
DR12   -0.00 dB -14.61 dB 08. Глаз твоих всегдашняя усталость.flac
DR12   -0.00 dB -14.50 dB 09. Не сердись, если я не права.flac
DR13   -0.00 dB -15.43 dB 10. Порой бывает трудный час.flac
DR12   -0.00 dB -15.72 dB 11. Проснулся я, а город еще спит.flac
DR11   -0.00 dB -14.70 dB 12. В бардовом зале 'Журавли' играют музыканты.flac
----------------------------------------------------------------------------------------------

Number of files:    12
Official DR value:  DR12


----------------------------------------------------------------------------------------------
Analyzed: Аркадий Северный с анс. '6+1', 1978, Remastered by Sergio N90\CD2
----------------------------------------------------------------------------------------------
DR       Peak         RMS      Filename
----------------------------------------------------------------------------------------------

DR11   -0.00 dB -14.23 dB 01. Мама, мама, мама дорогая, прости, что воровку на свет родила.flac
DR11   -0.00 dB -14.33 dB 02. Вот и пришел тот конец нашей долгой разлуки.flac
DR12   -0.00 dB -14.54 dB 03. Ты закрой ресницы, милая моя.flac
DR11   -0.00 dB -14.73 dB 04. Ты не грусти, что на дворе уж осень серая.flac
DR10   -0.00 dB -12.48 dB 05. Вдоль по речке-речке утки плавают.flac
DR11   -0.00 dB -13.60 dB 06. Жалко ты не видишь, не догонишь.flac
DR11   -0.00 dB -13.43 dB 07. Отцвела черемуха в который раз.flac
DR10   -0.00 dB -13.07 dB 08. Дни уходят от нас чередой и виски уж покрыты сединой.flac
DR11   -0.00 dB -13.83 dB 09. Вечер над Одессой проплывает.flac
DR11   -0.00 dB -13.72 dB 10. По спиралям шоссе, по горам и лесам.flac
DR13   -0.00 dB -15.26 dB 11. Почему-то опять я тебя вспоминаю.flac
DR11   -0.00 dB -13.75 dB 12. Ты мне не снилась в моих мечтах.flac
DR11   -0.00 dB -14.40 dB 13. Помнишь двор занесенный снегом белым пушистым.flac
DR11   -0.00 dB -13.04 dB 14. Повстречал я девчонку смешную.flac
----------------------------------------------------------------------------------------------

Number of files:    14
Official DR value:  DR11

0


Вы здесь » Tutnet-fufla » Отечественный шансон.Авторская песня » А. Северный с анс. "6+1", 1978‡Remastered by Sergio N90&