Tutnet-fufla

Объявление

Введите здесь ваше объявление.

Информация о пользователе

Привет, Гость! Войдите или зарегистрируйтесь.


Вы здесь » Tutnet-fufla » Музыка разных жанров » (24/96) гр Пикник - 1987 год (lossless)


(24/96) гр Пикник - 1987 год (lossless)

Сообщений 1 страница 2 из 2

1

(24/96) гр Пикник - 1987 год (lossless)
.
Оцифровка Борис 63  с кассеты Игоря (Капитан_Воронин) - Спасибо

01. Я невидим
02. Интересно
03. Нет берегов
04. Романс
05. Это он
06. Друг другу на зло
07. Дай себя сорвать
08. Все остальное дым
09. Scorpions - Still Loving You

https://yadi.sk/mail/?hash=wvmd9lRpioO1u2rRJf03qxynDI33YhRnPAqY4UQjZ30=&uid=423865181

REM GENRE "Рок"
REM DATE 1987
REM COMMENT "Оцифровка - Борис 63"
TITLE "Родом ниоткуда"
PERFORMER "гр.ПИКНИК"
FILE "пикник 87.flac" WAVE
  TRACK 01 AUDIO
TITLE "Я невидим"
PERFORMER "гр.ПИКНИК"
    INDEX 01 00:00:00
  TRACK 02 AUDIO
TITLE "Интересно"
PERFORMER "гр.ПИКНИК"
    INDEX 01 06:04:46
  TRACK 03 AUDIO
TITLE "Нет берегов"
PERFORMER "гр.ПИКНИК"
    INDEX 01 11:54:51
  TRACK 04 AUDIO
TITLE "Романс"
PERFORMER "гр.ПИКНИК"
    INDEX 01 17:02:45
  TRACK 05 AUDIO
TITLE "Это он"
PERFORMER "гр.ПИКНИК"
    INDEX 01 19:21:10
  TRACK 06 AUDIO
TITLE "Друг другу на зло"
PERFORMER "гр.ПИКНИК"
    INDEX 01 23:58:10
  TRACK 07 AUDIO
TITLE "Дай себя сорвать"
PERFORMER "гр.ПИКНИК"
    INDEX 01 29:08:24
  TRACK 08 AUDIO
TITLE "Все остальное дым"
PERFORMER "гр.ПИКНИК"
    INDEX 01 34:13:50
  TRACK 09 AUDIO
TITLE "Still Loving You"
PERFORMER "Scorpions"
    INDEX 01 37:15:50

0

2

«Пикни́к» — советская и российская рок-группа, основанная в Ленинграде в 1978 году. Отправной точкой нынешнего «Пикника» сами участники группы считают приход в группу Эдмунда Шклярского в 1981 году, либо год записи первого альбома — 1982 год.
Музыка группы, имеющая свои корни в русском роке, прогрессировала в оригинальный, необычный стиль с использованием симфонических, клавишных и экзотических народных инструментов.

Первый «гастрольный» состав «Пикника»
Эдмунд Шклярский - гитара, вокал
Вадим Пономарёв - ударные
Юрий Ключанцев - саксофон, клавишные
Александр Савельев - гитара
Виктор Евсеев - бас
Сергей Воронин - клавишные

http://s4.uploads.ru/mCUv4.jpg

0


Вы здесь » Tutnet-fufla » Музыка разных жанров » (24/96) гр Пикник - 1987 год (lossless)