Tutnet-fufla

Объявление

Введите здесь ваше объявление.

Информация о пользователе

Привет, Гость! Войдите или зарегистрируйтесь.


Вы здесь » Tutnet-fufla » Музыка разных жанров » Diana Krall - Quiet Nights[lossless]


Diana Krall - Quiet Nights[lossless]

Сообщений 1 страница 2 из 2

1

Название: Diana Krall
Альбом: Quiet Nights
Год: 2009
Формат/Кодек: FLAC (image + CUE + log + scans)
Битрейт аудио: lossless
Источник инт.

Стиль: Jazz, Vocal

Треклист:
01. Where or When - [04:09]
02. Too Marvelous for Words - [04:03]
03. I've Grown Accustomed to His Face - [04:46]
04. The Boy from Ipanema - [04:52]
05. Walk On By - [05:01]
06. You're My Thrill - [05:47]
07. Este Seu Olhar - [02:45]
08. So Nice - [03:50]
09. Quiet Nights - [04:45]
10. Guess I'll Hang My Tears Out to Dry - [04:50]
11. How Can You Mend a Broken Heart - [04:29]
12. Every Time We Say Goodbye - [05:18]

https://yadi.sk/d/d4OdzDWB3PQjF6

AUDIOCHECKER v2.0 beta (build 457) - by Dester - opdester@freemail.hu
~~~~~~~~~~~~~~~~~~~~~~~~~~~~~~~~~~
-=== DO NOT EDIT THIS FILE! ===-

Path: ...\Diana Krall - 2009 - Quiet Nights

1 -=- Diana Krall - Quiet Nights.flac -=- CDDA (100%)

33583364

Exact Audio Copy V0.99 prebeta 4 from 23. January 2008

Отчёт EAC об извлечении, выполненном 16. мая 2009, 10:47

Diana Krall / Quiet Nights

Дисковод: Optiarc DVD RW AD-7203A   Adapter: 0  ID: 1

Режим чтения                 : Достоверность
Использование точного потока : Да
Отключение кэша аудио        : Да
Использование указателей C2  : Нет

Коррекция смещения при чтении                     : 48
Способность читать области Lead-in и Lead-out     : Нет
Заполнение пропущенных сэмплов тишиной            : Да
Удаление блоков с тишиной в начале и конце        : Нет
При вычислениях CRC использовались нулевые сэмплы : Да
Интерфейс                                         : Встроенный Win32-интерфейс для Win NT/2000

Выходной формат          : Пользовательский кодировщик
Выбранный битрейт        : 768 kBit/s
Качество                 : Высокий
Добавление ID3-тэга      : Нет
Утилита сжатия           : C:\Program Files\Exact Audio Copy\FLAC\FLAC.EXE
Дополнительные параметры : -8 -V -T "ARTIST=%a" -T "TITLE=%t" -T "ALBUM=%g" -T "DATE=%y" -T "TRACKNUMBER=%n" -T "GENRE=%m" -T "COMMENT=%e" %s -o %d

TOC извлечённого CD

     Трек |   Старт  | Длительность | Начальный сектор | Конечный сектор
    ---------------------------------------------------------------------
       1  |  0:00.00 |    4:10.04   |           0      |      18753     
       2  |  4:10.04 |    4:05.60   |       18754      |      37188     
       3  |  8:15.64 |    4:48.12   |       37189      |      58800     
       4  | 13:04.01 |    4:54.38   |       58801      |      80888     
       5  | 17:58.39 |    5:03.01   |       80889      |     103614     
       6  | 23:01.40 |    5:47.32   |      103615      |     129671     
       7  | 28:48.72 |    2:45.73   |      129672      |     142119     
       8  | 31:34.70 |    3:52.46   |      142120      |     159565     
       9  | 35:27.41 |    4:45.64   |      159566      |     181004     
      10  | 40:13.30 |    4:59.58   |      181005      |     203487     
      11  | 45:13.13 |    4:30.62   |      203488      |     223799     
      12  | 49:44.00 |    5:18.74   |      223800      |     247723     

Характеристики диапазона извлечения и сообщения об ошибках

Выбранный диапазон

     Имя файла C:\tempo\copy\Diana Krall - Quiet Nights.wav

     Пиковый уровень 100.0 %
     Качество диапазона 100.0 %
     CRC теста C80F936C
     CRC копии C80F936C
     Копирование... OK

Ошибок не произошло

AccurateRip: сводка

Трек  1  точное извлечение (доверие 74)  [B71F5714]
Трек  2  точное извлечение (доверие 74)  [72F321EA]
Трек  3  точное извлечение (доверие 74)  [57765DF2]
Трек  4  точное извлечение (доверие 73)  [E5FDE408]
Трек  5  точное извлечение (доверие 73)  [9C82E391]
Трек  6  точное извлечение (доверие 73)  [886035E5]
Трек  7  точное извлечение (доверие 73)  [765C31C5]
Трек  8  точное извлечение (доверие 73)  [65F0327E]
Трек  9  точное извлечение (доверие 72)  [45AF6AE5]
Трек 10  точное извлечение (доверие 73)  [1F71D7C2]
Трек 11  точное извлечение (доверие 72)  [4AB29070]
Трек 12  точное извлечение (доверие 74)  [2862B9B0]

Все треки извлечены точно

Конец отчёта
..................................................................................................................

Источник спившийся придурок с вт Сруль саломонович

[1/5,64 MHz] Diana Krall - Quiet Nights - 2009, DSD 128 (tracks)

[1/5,64 MHz] Diana Krall - Quiet Nights - 2009, DSD 128 (tracks)

Жанр: Jazz
Носитель: LP 180gr.
Год выпуска: 2009
Лейбл: Verve Records ?– 602517963528
Страна-производитель: Europe
Аудио кодек: DSD 128
Тип рипа: tracks
Формат записи: 1/5,64 MHz
Формат раздачи: 1/5,64 MHz
Продолжительность: 45:05
Размер: 1,71 ГБ
Размер: 1,95 ГБ

Треклист:

A1 Where Or When 4:09
A2 Too Marvelous For Words 4:03
A3 I've Grown Accustomed To His Face 4:46
A4 The Boy From Ipanema 4:52
Lyrics By – Vinicius De Moraes
Music By – Antonio Carlos Jobim
A5 Walk On By 5:01

B1 You're My Thrill 5:47
B2 Este Seu Olhar 2:45
Written-By – Antonio Carlos Jobim
B3 So Nice 3:50
Translated By – Norman Gimbel
Written-By – Marcos Valle, Paulo Sergio Valle
B4 Quiet Nights 4:45
Music By – Antonio Carlos Jobim
B5 Guess I'll Hang My Tears Out To Dry 4:49

Credits:
Arranged By, Conductor – Claus Ogerman
Bass – John Clayton
Drums – Jeff Hamilton
Engineer [Assistant Engineer] – Dan Johnson, Rick Fernandez
Guitar – Anthony Wilson
Mastered By – Doug Sax, Sangwook Nam
Mixed By – Al Schmitt
Percussion – Paulinho Da Costa (tracks: A1, A2, A4, A5, B2 to B4)
Producer – Tommy LiPuma
Recorded By – Al Schmitt, Steve Genewick
Vocals, Piano, Producer – Diana Krall

Источник оцифровки: Tuandrei
Код класса состояния винила: NM
Устройство воспроизведения: Trio KP-700
Головка звукоснимателя: ART-2000
Предварительный усилитель: Авторский, транзисторный 3
АЦП: Korg MR-2000S
Программа-оцифровщик: Нет
Обработка: Нет

https://yadi.sk/mail/?hash=mKG2jSwZUC5pSNniKvXSdx+YA3djeUkdJzTSYVB3dBw=&uid=529909748
https://yadi.sk/mail/?hash=+tO8rqVomlrwTe8EFbSCpR/VMJlV3r8sRViVMUhqp5g=&uid=529909748

0

2

http://s3.uploads.ru/2y9Mz.png

http://s8.uploads.ru/piWux.png

0


Вы здесь » Tutnet-fufla » Музыка разных жанров » Diana Krall - Quiet Nights[lossless]