(24/96) Алексей Глызин - Любовь-беда- 1993 год(lossless)


Оцифровка
Борис 63с катушки
купленой Александром(Вит70)
привез Илья(redcaesar ) Выставлен на основе приват прог.


Алексей Глызин - Любовь-беда 1993

Часть 1
01 Интро
02 Письма издалека
03 Лампа настольная
04 Африка
05 Интро
06 Розы на память
07 Защити меня от одиночества
08 Блудный сын
09 Реклама
10 Моя любовь
11 Ты-моя
12 Зимний сад
13 Интро
14 Пепел любви
15 Инструментал

Часть 2
01 Интро
02 То-ли воля, то-ли неволя
03 Крик в ночи
04 Молитва
05 Интро
06 Ты-не ангел
07 Сон
08 Любовь-беда
09 Всё позади
10 Реклама
11 Счастье ты моё
12 Интро
13 Взгляд М.С. - Слайды
14 Взгляд М.С. - Твой домашний звук
15 Взгляд М.С. - Радиосигнал

https://yadi.sk/mail/?hash=xrvQM4nn3RwVW7AyKq8ZtUeRvBkuyjQjU/YToZaDvRk=&uid=193190115
https://yadi.sk/mail/?hash=ibGyzawKiOhoRykAzdSNQrv99gLPVj+/di+bCiLtd0E=&uid=193190115

mp3--320kbps:

https://yadi.sk/mail/?hash=8KjPc8ZnYnf/L204ErFVQLc9cGBTYL2NYYc5t+kdU4w=&uid=41706495

REM GENRE "Поп"
REM DATE 1993
REM COMMENT "Оцифровка - Борис 63"
TITLE "Любовь-беда"
PERFORMER "Алексей Глызин"
FILE "1ст.flac" WAVE
  TRACK 01 AUDIO
TITLE "Интро"
PERFORMER "Алексей Глызин"
    INDEX 01 00:02:53
  TRACK 02 AUDIO
TITLE "Письма издалека"
PERFORMER "Алексей Глызин"
    INDEX 01 00:14:53
  TRACK 03 AUDIO
TITLE "Лампа настольная"
PERFORMER "Алексей Глызин"
    INDEX 01 04:24:24
  TRACK 04 AUDIO
TITLE "Африка"
PERFORMER "Алексей Глызин"
    INDEX 01 08:11:22
  TRACK 05 AUDIO
TITLE "Интро"
PERFORMER "Алексей Глызин"
    INDEX 01 12:47:31
  TRACK 06 AUDIO
TITLE "Розы на память"
PERFORMER "Алексей Глызин"
    INDEX 01 12:56:56
  TRACK 07 AUDIO
TITLE "Защити меня от одиночества"
PERFORMER "Алексей Глызин"
    INDEX 01 17:20:47
  TRACK 08 AUDIO
TITLE "Блудный сын"
PERFORMER "Алексей Глызин"
    INDEX 01 20:54:54
  TRACK 09 AUDIO
TITLE "Реклама"
PERFORMER "Реклама"
    INDEX 01 25:07:25
  TRACK 10 AUDIO
TITLE "Моя любовь"
PERFORMER "Алексей Глызин"
    INDEX 01 25:44:26
  TRACK 11 AUDIO
TITLE "Ты-моя"
PERFORMER "Алексей Глызин"
    INDEX 01 30:54:73
  TRACK 12 AUDIO
TITLE "Зимний сад"
PERFORMER "Алексей Глызин"
    INDEX 01 35:24:16
  TRACK 13 AUDIO
TITLE "Интро"
PERFORMER "Алексей Глызин"
    INDEX 01 39:55:20
  TRACK 14 AUDIO
TITLE "Пепел любви"
PERFORMER "Алексей Глызин"
    INDEX 01 40:05:50
  TRACK 15 AUDIO
TITLE "Инструментал"
PERFORMER "Алексей Глызин"
    INDEX 01 45:46:22
FILE "2ст.flac" WAVE
  TRACK 16 AUDIO
TITLE "Интро"
PERFORMER "Алексей Глызин"
    INDEX 01 00:04:01
  TRACK 17 AUDIO
TITLE "То-ли воля, то-ли неволя"
PERFORMER "Алексей Глызин"
    INDEX 01 00:15:48
  TRACK 18 AUDIO
TITLE "Крик в ночи"
PERFORMER "Алексей Глызин"
    INDEX 01 04:26:25
  TRACK 19 AUDIO
TITLE "Молитва"
PERFORMER "Алексей Глызин"
    INDEX 01 08:21:60
  TRACK 20 AUDIO
TITLE "Интро"
PERFORMER "Алексей Глызин"
    INDEX 01 12:36:27
  TRACK 21 AUDIO
TITLE "Ты-не ангел"
PERFORMER "Алексей Глызин"
    INDEX 01 12:46:37
  TRACK 22 AUDIO
TITLE "Сон"
PERFORMER "Алексей Глызин"
    INDEX 01 16:34:09
  TRACK 23 AUDIO
TITLE "Любовь-беда"
PERFORMER "Алексей Глызин"
    INDEX 01 21:42:30
  TRACK 24 AUDIO
TITLE "Всё позади"
PERFORMER "Алексей Глызин"
    INDEX 01 25:40:32
  TRACK 25 AUDIO
TITLE "Реклама"
PERFORMER "Реклама"
    INDEX 01 29:14:19
  TRACK 26 AUDIO
TITLE "Счастье ты моё"
PERFORMER "Алексей Глызин"
    INDEX 01 29:51:61
  TRACK 27 AUDIO
TITLE "Интро"
PERFORMER "Алексей Глызин"
    INDEX 01 33:55:37
  TRACK 28 AUDIO
TITLE "Слайды"
PERFORMER "Взгляд М.С."
    INDEX 01 34:05:42
  TRACK 29 AUDIO
TITLE "Твой домашний звук"
PERFORMER "Взгляд М.С."
    INDEX 01 38:32:00
  TRACK 30 AUDIO
TITLE "Радиосигнал"
PERFORMER "Взгляд М.С."
    INDEX 01 41:33:31