Это интересно Скрыть

Tutnet-fufla

Объявление

Информация о пользователе

Привет, Гость! Войдите или зарегистрируйтесь.


Вы здесь » Tutnet-fufla » Шансон в форм. lossless » (24/96) Николай Владов‡Вологодский конвой[lossless]&


(24/96) Николай Владов‡Вологодский конвой[lossless]&

Сообщений 1 страница 3 из 3

1

(24/96) Николай Владов - Вологодский конвой [lossless]

Оцифровка Борис 63  с катушки Юрия с вт

Треклист:

01 Николай Владов - Я не видал, как мама умерла...
02 Николай Владов - Говорят седина украшает мужчин...
03 Николай Владов - В Ленинграде гулял я мальчишкой...
04 Николай Владов - Я помню перронный гудок...
05 Николай Владов - Чух-чух-чух-чух, стучат колеса громко...
06 Николай Владов - От сезона до сезона никогда не меняется зона...
07 Николай Владов - Здравствуй моя мама дорогая... (Письмо)
08 Николай Владов - С киркой лопатой на севере далеком...
09 Николай Владов - Инструментал

10 Михаил Шелег - В натуре: 'Ап!'
11 Михаил Шелег - Газовый балончик

12 Николай Владов - Не забыть вечер тот темно-синий...
13 Николай Владов - Паровоз бежит по рельсам...
14 Николай Владов - С малых лет я скитался по свету...
15 Николай Владов - Десять лет получил...
16 Николай Владов - Девять лет не видел мать-старуху...
17 Николай Владов - Под конвоем вышел из машины...
18 Николай Владов - Как вернулся с лагеря домой...
19 Николай Владов - С одесского кичмана...
20 Николай Владов - А вы знаете...

https://yadi.sk/mail/?hash=iTNqPVM82sT0zV0redKBELEHlW4ae643tvdjT674yMM=&uid=475648199

https://yadi.sk/mail/?hash=JaCEMvTncbqkAGKBexASLQF1/IOvqB9taa+39UJKU7I=&uid=475648199
________________

https://yadi.sk/d/a8AiwhtI3LiktS

REM GENRE "Шансон"
REM COMMENT "Оцифровка - Борис 63"
TITLE "Вологодский конвой"
PERFORMER "Николай Владов"
FILE "1.flac" WAVE
  TRACK 01 AUDIO
TITLE "Я не видал, как мама умерла..."
PERFORMER "Николай Владов"
    INDEX 01 00:00:00
  TRACK 02 AUDIO
TITLE "Говорят седина украшает мужчин..."
PERFORMER "Николай Владов"
    INDEX 01 04:16:13
  TRACK 03 AUDIO
TITLE "В Ленинграде гулял я мальчишкой..."
PERFORMER "Николай Владов"
    INDEX 01 08:55:62
  TRACK 04 AUDIO
TITLE "Я помню перронный гудок..."
PERFORMER "Николай Владов"
    INDEX 01 14:40:07
  TRACK 05 AUDIO
TITLE "Чух-чух-чух-чух,  стучат колеса громко..."
PERFORMER "Николай Владов"
    INDEX 01 19:12:06
  TRACK 06 AUDIO
TITLE "От сезона до сезона никогда не меняется зона..."
PERFORMER "Николай Владов"
    INDEX 01 22:08:71
  TRACK 07 AUDIO
TITLE "Здравствуй моя мама дорогая... (Письмо)"
PERFORMER "Николай Владов"
    INDEX 01 26:37:48
  TRACK 08 AUDIO
TITLE "С киркой лопатой на севере далеком..."
PERFORMER "Николай Владов"
    INDEX 01 35:11:61
  TRACK 09 AUDIO
TITLE "Инструментал"
PERFORMER "Николай Владов"
    INDEX 01 37:42:74
  TRACK 10 AUDIO
TITLE "В натуре: 'Ап!'"
PERFORMER "Михаил Шелег"
    INDEX 01 40:57:23
  TRACK 11 AUDIO
TITLE "Газовый балончик"
PERFORMER "Михаил Шелег"
    INDEX 01 41:41:72
FILE "2.flac" WAVE
  TRACK 12 AUDIO
TITLE "Не забыть вечер тот темно-синий..."
PERFORMER "Николай Владов"
    INDEX 01 00:00:00
  TRACK 13 AUDIO
TITLE "Паровоз бежит по рельсам..."
PERFORMER "Николай Владов"
    INDEX 01 05:58:16
  TRACK 14 AUDIO
TITLE "С малых лет я скитался по свету..."
PERFORMER "Николай Владов"
    INDEX 01 09:07:59
  TRACK 15 AUDIO
TITLE "Десять лет получил..."
PERFORMER "Николай Владов"
    INDEX 01 13:12:03
  TRACK 16 AUDIO
TITLE "Девять лет не видел мать-старуху..."
PERFORMER "Николай Владов"
    INDEX 01 16:08:63
  TRACK 17 AUDIO
TITLE "Под конвоем вышел из машины..."
PERFORMER "Николай Владов"
    INDEX 01 21:25:51
  TRACK 18 AUDIO
TITLE "Как вернулся с лагеря домой..."
PERFORMER "Николай Владов"
    INDEX 01 25:15:72
  TRACK 19 AUDIO
TITLE "С одесского кичмана..."
PERFORMER "Николай Владов"
    INDEX 01 32:17:06
  TRACK 20 AUDIO
TITLE "А вы знаете..."
PERFORMER "Николай Владов"
    INDEX 01 37:20:37

0

2

http://sg.uploads.ru/dLlw1.png

0

3

http://s9.uploads.ru/N0rgi.gif

0


Вы здесь » Tutnet-fufla » Шансон в форм. lossless » (24/96) Николай Владов‡Вологодский конвой[lossless]&