Tutnet-fufla

Объявление

Уважаемые Гости Чтоб общаться в Чате Зайдите и зарегистрируйтесь

Информация о пользователе

Привет, Гость! Войдите или зарегистрируйтесь.


Вы здесь » Tutnet-fufla » Готевая » Впервые в сети инт .


Впервые в сети инт .

Сообщений 1 страница 10 из 10

1

http://sg.uploads.ru/mfEsk.jpg

0

2

не бывал ребята я в Стокгольме
слышал что сам ленин там бывал
на вт альбом в приват  упрячут
там админ ведь конченый шакал

[player][{n:"Приватный альбом ",u:"http://d.zaix.ru/5KTu.mp3",c:""}][/player]

0

3

(24/96) Блатной сборник -За стеной тюремной- (lossless)

http://sa.uploads.ru/mJBaG.png

Сборник официально не издавался .
Песни все известные.
Внимание - скорее всего записан с лицензионных CD.

Open For Vote

PGJyPjxhIGhyZWY9Imh0dHBzOi8veWFkaS5zay9tYWlsLz9oYXNoPVpzMjJzbDNTUzBqRkFRR0FheGU0ZTNqOTVtZW1vek8xTldWY2JsbG8zaDglM0QmdWlkPTQ3NTY0ODE5OSI+aHR0cHM6Ly95YWRpLnNrL21haWwvP2hhc2g9WnMyMnNsM1NTMGpGQVFHQWF4ZTRlM2o5NW1lbW96TzFOV1ZjYmxsbzNoOCUzRCZ1aWQ9NDc1NjQ4MTk5PC9hPg

Спасибо Боря ........

0

4

Треклист.

1. Шпец - Я сижу на шконке -
2. Ф.Карманов - Камерная -
3. А.Кайданский - Заплутали мишки -
4. В.Бочаров - БУР -
5. Ю.Брилиантов - На волю -
6. Г.Грач - За компанию -
7. В.Харламов - Встреча -
8. В.Коротин -Выглянет месяц -
9. А.Дюмин - Начальник Барабанов -

Код:
REM GENRE "Шансон"
REM COMMENT "Оцифровка - Борис 63"
TITLE "Сборник"
PERFORMER "За стеной тюремной"
FILE "за стеной тюремной.flac" WAVE
  TRACK 01 AUDIO
TITLE "Я сижу на шконке"
PERFORMER "Шпец"
    INDEX 01 00:01:14
  TRACK 02 AUDIO
TITLE "Камерная"
PERFORMER "Ф.Карманов"
    INDEX 01 04:18:34
  TRACK 03 AUDIO
TITLE "Заплутали мишки"
PERFORMER "А.Кайданский"
    INDEX 01 08:17:17
  TRACK 04 AUDIO
TITLE "БУР"
PERFORMER "В.Бочаров"
    INDEX 01 11:37:26
  TRACK 05 AUDIO
TITLE "На волю"
PERFORMER "Ю.Брилиантов"
    INDEX 01 16:22:38
  TRACK 06 AUDIO
TITLE "За компанию"
PERFORMER "Г.Грач"
    INDEX 01 19:46:01
  TRACK 07 AUDIO
TITLE "Встреча"
PERFORMER "В.Харламов"
    INDEX 01 22:35:50
  TRACK 08 AUDIO
TITLE "Выглянет месяц"
PERFORMER "В.Коротин"
    INDEX 01 25:45:69
  TRACK 09 AUDIO
TITLE "Начальник Барабанов"
PERFORMER "А.Дюмин"
    INDEX 01 29:40:71

0

5

Отзывы по шедевру из 2 поста музыкального критика и придурка из нижнекамска ..
как сообщил митя с вт щас готовится новый альбом в два голоса ....В нём будет повествование о побеге из дурдома
как алёшка пробирался тайными тропами ... уходя от погони .... Со слов мити он скрывался в разливе в шалаше у ленина...

http://se.uploads.ru/9NWsC.gif

Свернутый текст

http://s7.uploads.ru/i2tW9.jpg

0

6

ГОСПОДИН КРИТИК
СЛУШАЙТЕ ВНИМАТЕЛЬНО ДВА ТРЕКА

[player][{n:"СЛАВА ШВЕД",u:"http://d.zaix.ru/5S2d.mp3",c:""}][/player]

0

7

[player][{n:"ПЕСНЯ",u:"http://d.zaix.ru/5S2f.mp3",c:""}][/player]

0

8

Слава Швед поёт конечно говно редкостное,но приходится терпеть,а то кроме татарина на форуме никого не останется!!!

0

9

камский ты что совсем ё...я или продюсером стал
вот лицензионный диск  выстави на плюсе

http://s4.uploads.ru/pGm35.png

http://s8.uploads.ru/9nbGP.jpg

0

10

Рекомендуемый просмотр в полный экран

0


Вы здесь » Tutnet-fufla » Готевая » Впервые в сети инт .