Tutnet-fufla

Объявление

Введите здесь ваше объявление.

Информация о пользователе

Привет, Гость! Войдите или зарегистрируйтесь.


Вы здесь » Tutnet-fufla » Шансон в форм. lossless » (24/96) АЛИК БЕРИСОН - 1968 г‡ с Владом Матеосяном &


(24/96) АЛИК БЕРИСОН - 1968 г‡ с Владом Матеосяном &

Сообщений 1 страница 2 из 2

1

(24/96) АЛИК БЕРИСОН - 1968 г. с Владом Матеосяном в дописи

Оцифровка  Борис 63  с катушки  Лучшего оц. инт. Смотрящий за форумом вт 
После прослушивания этого альбома Спившийся придурок дмитрий Music Group
уехал в израиль изучать идиш.......

01 Алик Берисон - Мясоедовская улица моя
02 Алик Берисон - Щеточки (Бершталах)
03 Алик Берисон - Течет речка по песочечку
04 Алик Берисон - Бублички
05 Алик Берисон - Портрет работы Пабло Пикассо
06 Алик Берисон - Искры камина
07 Алик Берисон - Здравствуй, чужая милая
08 Алик Берисон - Жил на свете Хаим
09 Алик Берисон - Ваше благородие, госпожа удача
10 Алик Берисон - Сонечка справляет именины
11 Алик Берисон - Я в весеннем лесу
12 Алик Берисон - Ужасно шумно в доме Шмеерзона
13 Алик Берисон - Ах, Одесса, жемчужина у моря!
14 Алик Берисон - Где же ты любовь моя?
15 Алик Берисон - Одесса зажигает огоньки
16 Алик Берисон - Кто к тебе постучал...
17 Алик Берисон - Был я летом раз в колхозе ...
18 Алик Берисон - Пара гнедых
19 Алик Берисон - Дорогая пропажа
20 Алик Берисон - Дайте мне билет на Биробиджан
21 Алик Берисон - Может быть под солнцем Еревана...
22 Алик Берисон - Ночка темна и туманна
23 Алик Берисон - В Биробиджане есть колхоз Октябрь...
24 Алик Берисон - На Молдаванке музыка играет
25 Алик Берисон - Выткался над озером алый цвет зари ...
26 Алик Берисон - Стою я раз на стреме

27 Владислав Матеосян - Помнишь за лесом избушка стояла...
28 Владислав Матеосян - Как-то по проспекту с Манькой я гулял...
29 Владислав Матеосян - Запрягай-ка тятька лошадь...
30 Владислав Матеосян - Что затуманилась зоренька ясная...
31 Владислав Матеосян - Черную розу - эмблему печали...
32 Владислав Матеосян - Помнишь двор занесенный...

https://yadi.sk/mail/?hash=vkmRVnSZGbeKwfrnHoXn2TWtUgPEFfy0vfAOrx5/gLM=

https://yadi.sk/mail/?hash=w8rI8C8O89P9JpY9fRePQvpAnB0yQdM/6AL3Wu6Q9SI=

мп3
https://yadi.sk/mail/?hash=DZEAAW6JNJbAGU+CnnwT9PgBivbBGnKv7Qyc1orTI1I=&uid=252251247



REM GENRE "Shanson"
REM COMMENT "Оцифровка - Борис 63"
TITLE "Магнитоальбом"
PERFORMER "Алик Берисон"
FILE "1 ст.flac" WAVE
  TRACK 01 AUDIO
TITLE "Мясоедовская улица моя"
PERFORMER "Алик Берисон"
    INDEX 01 00:02:40
  TRACK 02 AUDIO
TITLE "Щеточки (Бершталах)"
PERFORMER "Алик Берисон"
    INDEX 01 02:33:48
  TRACK 03 AUDIO
TITLE "Течет речка по песочечку"
PERFORMER "Алик Берисон"
    INDEX 01 05:19:72
  TRACK 04 AUDIO
TITLE "Бублички"
PERFORMER "Алик Берисон"
    INDEX 01 08:39:52
  TRACK 05 AUDIO
TITLE "Портрет работы Пабло Пикассо"
PERFORMER "Алик Берисон"
    INDEX 01 10:56:54
  TRACK 06 AUDIO
TITLE "Искры камина"
PERFORMER "Алик Берисон"
    INDEX 01 14:33:30
  TRACK 07 AUDIO
TITLE "Здравствуй, чужая милая"
PERFORMER "Алик Берисон"
    INDEX 01 17:21:40
  TRACK 08 AUDIO
TITLE "Жил на свете Хаим"
PERFORMER "Алик Берисон"
    INDEX 01 21:29:08
  TRACK 09 AUDIO
TITLE "Ваше благородие, госпожа удача"
PERFORMER "Алик Берисон"
    INDEX 01 23:58:61
  TRACK 10 AUDIO
TITLE "Сонечка справляет именины"
PERFORMER "Алик Берисон"
    INDEX 01 27:15:30
  TRACK 11 AUDIO
TITLE "Я в весеннем лесу"
PERFORMER "Алик Берисон"
    INDEX 01 29:35:36
  TRACK 12 AUDIO
TITLE "Ужасно шумно в доме Шмеерзона"
PERFORMER "Алик Берисон"
    INDEX 01 31:37:03
  TRACK 13 AUDIO
TITLE "Ах, Одесса, жемчужина у моря!"
PERFORMER "Алик Берисон"
    INDEX 01 34:09:20
  TRACK 14 AUDIO
TITLE "Где же ты любовь моя?"
PERFORMER "Алик Берисон"
    INDEX 01 36:15:51
  TRACK 15 AUDIO
TITLE "Одесса зажигает огоньки"
PERFORMER "Алик Берисон"
    INDEX 01 40:22:35
  TRACK 16 AUDIO
TITLE "Кто к тебе постучал..."
PERFORMER "Алик Берисон"
    INDEX 01 43:56:49
FILE "2 ст.flac" WAVE
  TRACK 17 AUDIO
TITLE "Был я летом раз в колхозе ..."
PERFORMER "Алик Берисон"
    INDEX 01 00:01:52
  TRACK 18 AUDIO
TITLE "Пара гнедых"
PERFORMER "Алик Берисон"
    INDEX 01 02:40:12
  TRACK 19 AUDIO
TITLE "Дорогая пропажа"
PERFORMER "Алик Берисон"
    INDEX 01 06:33:17
  TRACK 20 AUDIO
TITLE "Дайте мне билет на Биробиджан"
PERFORMER "Алик Берисон"
    INDEX 01 10:43:49
  TRACK 21 AUDIO
TITLE "Может быть под солнцем Еревана..."
PERFORMER "Алик Берисон"
    INDEX 01 12:59:67
  TRACK 22 AUDIO
TITLE "Ночка темна и туманна"
PERFORMER "Алик Берисон"
    INDEX 01 16:05:28
  TRACK 23 AUDIO
TITLE "В Биробиджане есть колхоз Октябрь..."
PERFORMER "Алик Берисон"
    INDEX 01 19:29:02
  TRACK 24 AUDIO
TITLE "На Молдаванке музыка играет"
PERFORMER "Алик Берисон"
    INDEX 01 21:18:31
  TRACK 25 AUDIO
TITLE "Выткался над озером алый цвет зари ..."
PERFORMER "Алик Берисон"
    INDEX 01 24:10:12
  TRACK 26 AUDIO
TITLE "Стою я раз на стреме"
PERFORMER "Алик Берисон"
    INDEX 01 27:07:03
  TRACK 27 AUDIO
TITLE "Помнишь за лесом избушка стояла..."
PERFORMER "Владислав Матеосян"
    INDEX 01 29:16:69
  TRACK 28 AUDIO
TITLE "Как-то по проспекту с Манькой я гулял... "
PERFORMER "Владислав Матеосян"
    INDEX 01 33:07:62
  TRACK 29 AUDIO
TITLE "Запрягай-ка тятька лошадь... "
PERFORMER "Владислав Матеосян"
    INDEX 01 35:22:66
  TRACK 30 AUDIO
TITLE "Что затуманилась зоренька ясная... "
PERFORMER "Владислав Матеосян"
    INDEX 01 38:33:31
  TRACK 31 AUDIO
TITLE "Черную розу - эмблему печали..."
PERFORMER "Владислав Матеосян"
    INDEX 01 40:45:68
  TRACK 32 AUDIO
TITLE "Помнишь двор занесенный... "
PERFORMER "Владислав Матеосян"
    INDEX 01 45:16:21

0

2

при обсуждении этого шедевра польз вт  .73Dimas 
был Заблокирован щас этот шедевр на вт можно скачать только за деньги вступив в их клуб
за 2000р

0


Вы здесь » Tutnet-fufla » Шансон в форм. lossless » (24/96) АЛИК БЕРИСОН - 1968 г‡ с Владом Матеосяном &