Tutnet-fufla

Объявление

Введите здесь ваше объявление.

Информация о пользователе

Привет, Гость! Войдите или зарегистрируйтесь.


Вы здесь » Tutnet-fufla » Шансон в форм. lossless » Александр Фогель - Для друга Г.С.Жаворо


Александр Фогель - Для друга Г.С.Жаворо

Сообщений 1 страница 2 из 2

1

http://s3.uploads.ru/t/q5Pt8.jpg

1986 - Александр Фогель -  Для друга Г.С.Жаворонкова

01. Вступление + Не грусти и не плачь, дорогая + Жил один скрипач  4:41
02. Попурри  2:41
03. Поезд мчится из Одессы  2:02
04. Хочу мужа  1:18
05. Ночка тёмная  2:34
06. Помнишь, как на масляной Москве  2:49
07. Прифраерившись, как фон барон  2:06
08. Звезды зажигаются хрустальные + Не смотрите вы так  7:38
09. Вокализ  1:35
10. Вокализ (2-й вариант)  1:41
11. Мне нагадала цыганка с картами + Марджанджа  3:55
12. Была весна+Вешние воды+Там где избушка+До свиданья, мой друг  8:00
13. Из колымского белого ада  1:13
14. Попурри (из худ.свиста, вокализа и песен)  3:04

СКАЧАТЬ   http://transfiles.ru/qbefq


foobar2000 1.2.6 / Измерение динамического диапазона 1.1.1
дата измерения: 2018-06-12 08:54:43

--------------------------------------------------------------------------------
Проанализировано: Александр Фогель / Для друга Г.С.Жаворонкова
--------------------------------------------------------------------------------

DR       Пик         RMSДлина    Трек
--------------------------------------------------------------------------------
DR12      -0.69 дБ   -17.79 дБ      4:41 ?-Вступление + Не грусти и не плачь, дорогая + Жил один скрипач
DR10      -0.06 дБ   -13.85 дБ      2:41 ?-Попурри
DR11      -1.44 дБ   -15.98 дБ      2:02 ?-Поезд мчится из Одессы
DR11      -1.72 дБ   -15.49 дБ      1:18 ?-Хочу мужа
DR10      -0.33 дБ   -14.07 дБ      2:34 ?-Ночка тёмная
DR12      -1.03 дБ   -16.43 дБ      2:49 ?-Помнишь, как на маслянной Москве
DR13      -2.05 дБ   -17.82 дБ      2:06 ?-Прифраерившись, как фон барон
DR11      -0.14 дБ   -15.49 дБ      7:38 ?-Звезды зажигаются хрустальные + Не смотрите вы так
DR11      -0.27 дБ   -14.84 дБ      1:35 ?-Вокализ
DR12      -0.79 дБ   -15.78 дБ      1:41 ?-Вокализ (2-й вариант)
DR10      -0.39 дБ   -14.23 дБ      3:55 ?-Мне нагадала цыганка с картами + Марджанджа
DR10      -0.03 дБ   -14.51 дБ      8:00 ?-Была весна+Вешние воды+Там где избушка+До свиданья, мой друг
DR11      -2.59 дБ   -16.32 дБ      1:13 ?-Из колымского белого ада
DR10      -0.62 дБ   -14.89 дБ      3:04 ?-Попурри (из худ.свиста, вокализа и песен)
--------------------------------------------------------------------------------

Количество треков: 14
Официальное значение DR: DR11

Частота дискретизации:  44100 Гц
Каналов:                2
Бит на сэмпл:           16
Битрейт:                822 kbps
Кодек:                  FLAC
================================================================================

Отредактировано paveltmb68 (2018-06-12 09:09:28)

0

2

Спасибо

0


Вы здесь » Tutnet-fufla » Шансон в форм. lossless » Александр Фогель - Для друга Г.С.Жаворо