Tutnet-fufla

Объявление

Введите здесь ваше объявление.

Информация о пользователе

Привет, Гость! Войдите или зарегистрируйтесь.


Вы здесь » Tutnet-fufla » Отечественный шансон.Авторская песня » Александр Заборский‡Александр Заборский&


Александр Заборский‡Александр Заборский&

Сообщений 1 страница 3 из 3

1

Александр Заборский -  Бродяга я...  2013г.
01. Ночь начинается  2:55
02. Позднее прозрение  3:06
03. Бродяга я...  2:59
04. Про Лёню-одессита  4:50
05. На Покровке  2:55
06. Дальняя дорога  3:39
07. Как-то раз пошли на дело  2:58
08. Карты  2:41
09. Наполним стаканы  3:22
10. Про Вовку и карты  2:54
11. Пошёл по этапу Босяк  3:24
12. Ночь. Окраина  2:37
скачать http://transfiles.ru/v9gb6

Отредактировано paveltmb68 (2018-08-09 09:05:18)

0

2

Сообщение для paveltmb68 Спасибо . можно Вас попросить Вы хъоть указывайте в каком кач альбом чтоб люди понимали .

0

3

foobar2000 1.2.6 / Измерение динамического диапазона 1.1.1
дата измерения: 2018-08-09 08:52:30

--------------------------------------------------------------------------------
Проанализировано: Александр Заборский / Бродяга я...
--------------------------------------------------------------------------------

DR       Пик         RMSДлина    Трек
--------------------------------------------------------------------------------
DR10      -1.48 дБ   -12.47 дБ      2:55 ?-Ночь начинается
DR9       -1.43 дБ   -11.75 дБ      3:06 ?-Позднее прозрение
DR9       -1.53 дБ   -13.27 дБ      2:59 ?-Бродяга я...
DR9       -1.25 дБ   -11.52 дБ      4:50 ?-Про Лёню-одессита
DR9       -1.42 дБ   -11.86 дБ      2:55 ?-На Покровке
DR11      -1.33 дБ   -14.02 дБ      3:39 ?-Дальняя дорога
DR10      -0.82 дБ   -11.90 дБ      2:58 ?-Как-то раз пошли на дело
DR9       -1.43 дБ   -11.90 дБ      2:41 ?-Карты
DR10      -1.53 дБ   -12.69 дБ      3:22 ?-Наполним стаканы
DR10      -1.47 дБ   -12.68 дБ      2:54 ?-Про Вовку и карты
DR10      -1.90 дБ   -13.06 дБ      3:24 ?-Пошёл по этапу Босяк
DR9       -2.06 дБ   -12.64 дБ      2:37 ?-Ночь. Окраина
--------------------------------------------------------------------------------

Количество треков: 12
Официальное значение DR: DR9

Частота дискретизации:  44100 Гц
Каналов:                2
Бит на сэмпл:           16
Битрейт:                865 kbps
Кодек:                  FLAC
================================================================================

0


Вы здесь » Tutnet-fufla » Отечественный шансон.Авторская песня » Александр Заборский‡Александр Заборский&