(24/96) ABBA ?– Voulez-Vous (1979) Polydor ?– 2344 136 [lossless]
Оц лучшего оц ин с вт Борис 63  смотрящего за форумом
Спасибо

Треклист:

01 ABBA - As Good As New
02 ABBA - Voulez-Vous
03 ABBA - I Have A Dream
04 ABBA - Angeleyes
05 ABBA - The King Has Lost His Crown
06 ABBA - Does Your Mother Know
07 ABBA - If It Wasn't For The Nights
08 ABBA - Chiquitita
09 ABBA - Lovers (Live A Little Longer)
10 ABBA - Kisses Of Fire

CUE:

Код:
REM GENRE "POP"
REM DATE 1979
REM COMMENT "Оцифровка - Борис 63"
TITLE "Voulez-Vous"
PERFORMER "ABBA"
FILE "1.flac" WAVE
  TRACK 01 AUDIO
TITLE "As Good As New"
PERFORMER "ABBA"
    INDEX 01 00:00:00
  TRACK 02 AUDIO
TITLE "Voulez-Vous"
PERFORMER "ABBA"
    INDEX 01 03:28:69
  TRACK 03 AUDIO
TITLE "I Have A Dream"
PERFORMER "ABBA"
    INDEX 01 08:37:68
  TRACK 04 AUDIO
TITLE "Angeleyes"
PERFORMER "ABBA"
    INDEX 01 13:28:01
  TRACK 05 AUDIO
TITLE "The King Has Lost His Crown"
PERFORMER "ABBA"
    INDEX 01 17:51:48
FILE "2.flac" WAVE
  TRACK 06 AUDIO
TITLE "Does Your Mother Know"
PERFORMER "ABBA"
    INDEX 01 00:00:00
  TRACK 07 AUDIO
TITLE "If It Wasn't For The Nights"
PERFORMER "ABBA"
    INDEX 01 03:15:30
  TRACK 08 AUDIO
TITLE "Chiquitita"
PERFORMER "ABBA"
    INDEX 01 08:27:07
  TRACK 09 AUDIO
TITLE "Lovers (Live A Little Longer)"
PERFORMER "ABBA"
    INDEX 01 13:56:33
  TRACK 10 AUDIO
TITLE "Kisses Of Fire"
PERFORMER "ABBA"
    INDEX 01 17:28:17


https://yadi.sk/mail?hash=Rd3RP+BrrmFbukR+FxshustKpE1foqON1lyfIARVC1s=&uid=193190115

https://yadi.sk/mail?hash=G9F5loRPzjqeHRM0EoWYJnttSDAMRq02hbfBMbxkCro=&uid=193190115