Ян Балл (Ян Балясный) - Брайтон Штат (1982) Lossless

Оцифровка с катушки из личной коллекции Борис 63 
Запись очень интересная - качество -лучше я не слышал


Треклист:

01. Приветствие
02. Широка была страна родная
03. Черные брови
04. Шли еврейские отряды, уезжающие в США
05. Ты ж меня пидманула
06. Гоп со сыком был когда то Я
07. Приехал я с другого берега
08. Америка
09. Всегда винят евреев
10. Мы из Оттуда
11. Брайтон наш одесский филиал
12. Ласкает Брайтон океан
13. Ручеечек ручеек
14. Лимончики
15. Пародия на Брежнева (Борис Сичкин (?))

CUE:

Цитата:
REM GENRE Chanson
REM DATE 1982
PERFORMER "Ян Балл"
TITLE "Брайтон-штат"
REM COMMENT "Оцифровка - Борис 63"
FILE "Ян Балл (Ян Балясный) - Брайтон Штат (1982).flac" WAVE
TRACK 01 AUDIO
TITLE "Приветствие"
PERFORMER "Ян Балл"
INDEX 01 00:00:00
TRACK 02 AUDIO
TITLE "Широка была страна родная"
PERFORMER "Ян Балл"
INDEX 01 01:07:42
TRACK 03 AUDIO
TITLE "Черные брови"
PERFORMER "Ян Балл"
INDEX 01 05:19:06
TRACK 04 AUDIO
TITLE "Шли еврейские отряды, уезжающие в США"
PERFORMER "Ян Балл"
INDEX 01 06:21:52
TRACK 05 AUDIO
TITLE "Ты ж меня пидманула"
PERFORMER "Ян Балл"
INDEX 01 09:02:65
TRACK 06 AUDIO
TITLE "Гоп со сыком был когда то Я"
PERFORMER "Ян Балл"
INDEX 01 11:14:60
TRACK 07 AUDIO
TITLE "Приехал я с другого берега"
PERFORMER "Ян Балл"
INDEX 01 14:36:57
TRACK 08 AUDIO
TITLE "Америка"
PERFORMER "Ян Балл"
INDEX 01 17:55:16
TRACK 09 AUDIO
TITLE "Всегда винят евреев"
PERFORMER "Ян Балл"
INDEX 01 20:19:73
TRACK 10 AUDIO
TITLE "Мы из Оттуда"
PERFORMER "Ян Балл"
INDEX 01 23:27:71
TRACK 11 AUDIO
TITLE "Брайтон наш одесский филиал"
PERFORMER "Ян Балл"
INDEX 01 26:23:57
TRACK 12 AUDIO
TITLE "Ласкает Брайтон океан"
PERFORMER "Ян Балл"
INDEX 01 28:25:01
TRACK 13 AUDIO
TITLE "Ручеечек ручеек"
PERFORMER "Ян Балл"
INDEX 01 31:20:19
TRACK 14 AUDIO
TITLE "Лимончики"
PERFORMER "Ян Балл"
INDEX 01 38:12:31
TRACK 15 AUDIO
TITLE "Пародия на Брежнева"
PERFORMER "Борис Сичкин (?)"
INDEX 01 40:02:22

https://yadi.sk/d/2fntkrQQ2tSbM