Tutnet-fufla

Объявление

Введите здесь ваше объявление.

Информация о пользователе

Привет, Гость! Войдите или зарегистрируйтесь.


Вы здесь » Tutnet-fufla » Музыка разных жанров » Евгений Осин - магнитоальбом‡(1994) [Lossless]&


Евгений Осин - магнитоальбом‡(1994) [Lossless]&

Сообщений 1 страница 2 из 2

1

Оцифровка с катушки  
Супермодератора. Смотрящий за форумом. вт
лучш. оц инт имевшего свою студию з/з
Борис 63

Евгений Осин - магнитоальбом (1994) [Lossless]

Код:
REM GENRE "Поп"
REM DATE 1994
REM COMMENT "Оцифровка - Борис 63"
PERFORMER "Евгений Осин"
TITLE "Магнитоальбом"
FILE "Евгений Осин - магнитоальбом.flac" WAVE
  TRACK 01 AUDIO
PERFORMER "8 Марта"
TITLE "Магнитоальбом"
    INDEX 01 00:03:26
  TRACK 02 AUDIO
PERFORMER "Друзьям"
TITLE "Магнитоальбом"
    INDEX 01 04:36:10
  TRACK 03 AUDIO
PERFORMER "Не ходи со мною рядом"
TITLE "Магнитоальбом"
    INDEX 01 07:57:48
  TRACK 04 AUDIO
PERFORMER "Не верю"
TITLE "Магнитоальбом"
    INDEX 01 11:26:03
  TRACK 05 AUDIO
PERFORMER "Осенний вечер"
TITLE "Магнитоальбом"
    INDEX 01 15:20:13
  TRACK 06 AUDIO
PERFORMER "Осень"
TITLE "Магнитоальбом"
    INDEX 01 18:16:72
  TRACK 07 AUDIO
PERFORMER "Стоп, стоп люди"
TITLE "Магнитоальбом"
    INDEX 01 22:17:45
  TRACK 08 AUDIO
PERFORMER "Я тебя люблю"
TITLE "Магнитоальбом"
    INDEX 01 28:07:27
  TRACK 09 AUDIO
PERFORMER "Для чего"
TITLE "Девчонки 70-х годов"
    INDEX 01 31:56:63
  TRACK 10 AUDIO
PERFORMER "Девчонки 70-х годов"
TITLE "Магнитоальбом"
    INDEX 01 36:11:23
  TRACK 11 AUDIO
PERFORMER "Песня про солнце"
TITLE "Магнитоальбом"
    INDEX 01 41:07:27
  TRACK 12 AUDIO
PERFORMER "Студентка-практикантка"
TITLE "Магнитоальбом"
    INDEX 01 44:55:02
 

ссылка от сруля саломоновича

FLAC+CUE:

https://yadi.sk/d/WTIs63QA5AbXE

Flac без нарезки на треки:
от Борис 63

https://yadi.sk/d/TkGPQbGQ59QOS

Вся сетевая этика соблюдена

По внутреннему убеждени. мед. коммиссии
в дурдоме большевики спиз...и запись .
Прошу моего (друга) Сруля саломоновича Будучи там зарег. Сопоставив всё выше написанное
спросить у большевиков
на каком обор. они произ. оц и от куда источник ...
Кто дал долбаёбам бвабину....Я по своим жизненым принцыпам Беру рел.
с ВТ с разрешешния Админа муз. гр. и луч. оц инт. И только с их разрешения
не могу допустить что большевики пришли к власти ....

Прошу Дмитрия Витальевича имея Два высш. обр... тыкая скринами людям и имея
общирную картатеку ВЧК
рассказать про этого исполнителя . По возможности я помогу ...Все данные будут оргумент.
и указан источник
дмитрий витальевич спросите у большевиков и у Админа друж. сайта Жидов пархатых
что получил исполнитель после пляске с Президентом России...
что получили они пиаря Еврея мы поговорим потом и в другой теме ....
Давай митька не ударь лиц2ом в грязь . На Вас смотрят Все оц2. которые с вами делились которых вы оскорбили

__________________

0

2

Об ушедших или ......................... или не как

https://pronedra.ru/kollega-evgeniya-os … 13326.html

0


Вы здесь » Tutnet-fufla » Музыка разных жанров » Евгений Осин - магнитоальбом‡(1994) [Lossless]&