Tutnet-fufla

Объявление

Введите здесь ваше объявление.

Информация о пользователе

Привет, Гость! Войдите или зарегистрируйтесь.


Вы здесь » Tutnet-fufla » Зарубежная музыка .Отечественная Поп музыка ( » Pink Floyd - Animals, 1977‡Remastered by Sergio N90&


Pink Floyd - Animals, 1977‡Remastered by Sergio N90&

Сообщений 1 страница 4 из 4

1

https://c.radikal.ru/c43/1901/79/324646ffd5f6.jpg
Исполнитель: Pink Floyd
Альбом: Animals
Год выхода: 1977
Жанp: Progressive Rock
Формат: FLAC
Качество: 16/44,1
Количество треков: 5
Общее время: 41:42
Размер архива: 255 мб
""""""""""""""""""""""""""""""""""""
Содержание:
01. Pigs On The Wing (Part One)
02. Dogs
03. Pigs (Three Different Ones)
04. Sheep
05. Pigs On The Wing (Part Two)
""""""""""""""""""""""""""""""""""""
Альбом из личной коллекции (remastered).
""""""""""""""""""""""""""""""""""""
Загружено на Яндекс.Диск
https://yadi.sk/d/hpMlY1zjmBRWPQ

0

2

Сообщение для Sergio N90 Спасибо .................

http://sd.uploads.ru/sPbE5.jpg

0

3

http://sd.uploads.ru/t/6UHpY.jpg
Сообщение для Sergio N90
куй https://www.upload.ee/download/9484042/ … s.flac.cue
КУЙ НУЖЕН ДЛЯ ПЛЕЕРА ФУБАР И ДР.
ТО-ЕСТЬ НЕ КИДАТЬ ВСЮ ПАПКУ В ПЛЕЕР А ЗАПУСКАЕШЬ ПЛЕЕР С КУЯ

#p44343,Sergio N90 написал(а):

в *.cue нет абсолютно никакой нужды.

Особенно кто привык МП3 слуХать

Проанализировано: Pink Floyd / Animals
--------------------------------------------------------------------------------

DR       Пик         RMSДлина    Трек
--------------------------------------------------------------------------------
DR14      -2.62 дБ   -21.92 дБ      1:24 ?-Pigs On The Wing (Part One)
DR11       0.00 дБ   -14.53 дБ     17:04 ?-Dogs
DR12      -0.45 дБ   -15.57 дБ     11:31 ?-Pigs (Three Different Ones)
DR11       0.00 дБ   -14.79 дБ     10:19 ?-Sheep
DR14      -4.44 дБ   -22.60 дБ      1:25 ?-Pigs On The Wing (Part Two)
--------------------------------------------------------------------------------

Количество треков: 5
Официальное значение DR: DR13

Частота дискретизации:  44100 Гц
Каналов:                2
Бит на сэмпл:           16
Битрейт:                821 kbps
Кодек:                  FLAC

Отредактировано paveltmb68 (2019-01-28 08:08:08)

0

4

Дмитрий 
Music Group спиздел и спасибо не сказал ....
сравнивайте слушайте муз..

Pink Floyd - Animals (1977) lossless
Pink Floyd - Animals (1977)

Треклист:

01 Pink Floyd - Pigs On The Wing (Part One)
02 Pink Floyd - Dogs
03 Pink Floyd - Pigs (Three Different Ones)
04 Pink Floyd - Sheep
05 Pink Floyd - Pigs On The Wing (Part Two)

             

Скачать FLAC (Track):

https://yadi.sk/mail?hash=wAQ2dU61pQmX0zOPJ2vPMiwAzygnPGMSOIUbe2oS1yY=&uid=252251247

0


Вы здесь » Tutnet-fufla » Зарубежная музыка .Отечественная Поп музыка ( » Pink Floyd - Animals, 1977‡Remastered by Sergio N90&