Tutnet-fufla

Объявление

Введите здесь ваше объявление.

Информация о пользователе

Привет, Гость! Войдите или зарегистрируйтесь.


Вы здесь » Tutnet-fufla » Оцифровки Гостей и польз. нашего форума » Беренсон Гриша "А как же вы думали" 1987


Беренсон Гриша "А как же вы думали" 1987

Сообщений 1 страница 2 из 2

1

Оцифровка с катушки лучшего оц инт
Борис 63  имевшего свою студию звукозаписи

http://s9.uploads.ru/tx1kA.jpg

CUE:

Код:
REM GENRE "Shanson"
REM DATE 1987
REM COMMENT "Оцифровка - Борис 63"
TITLE "А как же вы думали?"
PERFORMER "Григорий Беренсон"
FILE "ГРИША БЕРИНСОН - 1987 год.flac" WAVE
  TRACK 01 AUDIO
TITLE "А как же вы думали?"
PERFORMER "Григорий Беренсон"
    INDEX 01 00:00:00
  TRACK 02 AUDIO
TITLE "А мы налетчики..."
PERFORMER "Григорий Беренсон"
    INDEX 01 03:50:18
  TRACK 03 AUDIO
TITLE "У меня не стоит твоя роза в стакане"
PERFORMER "Григорий Беренсон"
    INDEX 01 09:25:61
  TRACK 04 AUDIO
TITLE "Частушки"
PERFORMER "Григорий Беренсон"
    INDEX 01 14:55:56
  TRACK 05 AUDIO
TITLE "В кабаке состоялось знакомство"
PERFORMER "Григорий Беренсон"
    INDEX 01 17:03:63
  TRACK 06 AUDIO
TITLE "От жены заначки брал с получки"
PERFORMER "Григорий Беренсон"
    INDEX 01 19:42:01
  TRACK 07 AUDIO
TITLE "На Молдаванке мы куплеты распеваем"
PERFORMER "Григорий Беренсон"
    INDEX 01 23:54:02
  TRACK 08 AUDIO
TITLE "Протест Израилю"
PERFORMER "Григорий Беренсон"
    INDEX 01 27:52:50
  TRACK 09 AUDIO
TITLE "Как я купил себе пиджак..."
PERFORMER "Григорий Беренсон"
    INDEX 01 30:58:63
  TRACK 10 AUDIO
TITLE "На Дерибасовской"
PERFORMER "Григорий Беренсон"
    INDEX 01 34:47:61
  TRACK 11 AUDIO
TITLE "Ты Россия большая страна"
PERFORMER "Григорий Беренсон"
    INDEX 01 41:09:15
  TRACK 12 AUDIO
TITLE "Говорят опять подорожает..."
PERFORMER "Григорий Беренсон"
    INDEX 01 43:08:47

https://yadi.sk/mail?hash=PCMYKTjjSrKGAMz9IgcLUmLFlN3rI4Yk5GDOcotkFFM=

0

2

На чём произ. оц вот этот сифилитик я не зщнаю Утверждает что орегинал...

http://s5.uploads.ru/zlRgL.jpg

Исполнитель: Беренсон Гриша
Альбом: А как же вы думали
Год выпуска: 1987 серпень
Жанр: Шансон
Формат: WAV + mp3
Качество: Lossless + 192kbps
Размер: 514Mb

Трек-лист:
   01.А как же вы думали.wav         
   02.А мы налётчики.wav             
   03.У меня не стоит.wav             
   04.На Дерибасовской.wav           
   05.В кабаке.wav                   
   06.От жены.wav                     
   07.На Молдаванке мы куплеты распевали
   08.Посылаю я письмо.wav           
   09.Как я купил себе пиджак.wav     
   10.Частушки.wav                   
   11.Набираю я 03.mp3               
   12.Я подросток нетипичный.mp3     
   13.Четверть века в трудах.mp3     
   14.Медленно ракеты уплывают вдаль
   15.Ах, Одесса.mp3                 
   16.Денежки.mp3                     
   17.Понимаешь, это странно.mp3     
   18.В детстве сказывала сказки.mp3
   19.Вся в цветах душистая аллея.mp3
   20.На любовь я гляжу...mp3         
   21.Куплеты.mp3                   
   22.Куплеты2.mp3                   
   23.Мясоедовская.mp3               
   24.День дождливый( Песня грузина)
   25.Новый танец Шунди-Мунди.mp3     
   26.Иду по Дерибасовской.mp3       
   27.Теперь любой киногерой.mp3     
   28.Частушки (ненорматив).mp3

.........................................

админ + сказал что оплатит рекл. а этого мудака отправит в дурдом ....
Правда мне митька с вт написал что готов его назначить модератором вместо глота

http://www.shanson-plus.ru/forums/index … ic=53255.0

0


Вы здесь » Tutnet-fufla » Оцифровки Гостей и польз. нашего форума » Беренсон Гриша "А как же вы думали" 1987