Tutnet-fufla

Объявление

Введите здесь ваше объявление.

Информация о пользователе

Привет, Гость! Войдите или зарегистрируйтесь.


Вы здесь » Tutnet-fufla » Североведы » Это всем североведам Часть2


Это всем североведам Часть2

Сообщений 301 страница 400 из 902

301

коллекс не продаст,в лучшем случае поменяется ,барыги другое дело и мы их знаем.

0

302

Сообщение для коллекс Хотите я вам приведу пример.............. Назовите мне хоть одну запись - концерт тех времён
о котором не знали чекисты ?????? Вы не смешите меня ...................Лезть в эту тему я не кому не советую.....
послед. не присказуемы .................... Вы приехали спели на квартире ... Кто то Вас записал на маг. Вы хоть понимаете что было потом ?????
Я и говорить не хочу польётся столько гов...а .........................а толком никто ничего не скажет и на это есть причины ................

0

303

Трек прослушал, примерно схожий звук с остальными вариантами. Тот, кто над ним поработал настоящий мастер. Всё чисто с технической стороны, не подкопаться, вроде бы как без редактирования и вытягивания, но ощущения что играет катушка или кассета нет. На все 100% не уверен, но верхняя граничная частота исходника была в районе 11000 гц, что совпадает с ощущением от звучания. Не знаю точно...

ты прав это ремастер и я даже знаю чей, но звук отвратительный. Кстати все работы этого человека мне не нравятся(это на мой вкус), он всегда перебарщивает шумоподавителем причём аудишиновским.  Я слушал много его творений ещё тогда на Северном сайте,с тех пор сразу отличаю его звук-он всегда выхолощенный и искусственный до помрачения в мозгу... А творчество Северного должно быть натуральным. Даже звучание того нерезанного от Оптимиста лучше и достовернее чем эта жертва деяния "звукорежиссуры".
Звук не понравился. На мой взгляд от Оптимиста хоть и малодетальный,но  ненавязчивый .Его можно слушать несколько раз

0

304

Сообщение для Леонид Нефтеюганский

#p46913,Леонид Нефтеюганский написал(а):

но звук отвратительный. Кстати все работы этого человека мне не нравятся(это на мой вкус), он всегда перебарщивает шумоподавителем причём аудишиновским.

Сделай сам и будет тебе счастье   :crazyfun:

Отредактировано paveltmb68 (2019-03-30 19:00:49)

+1

305

А я претензии не предъявляю, разговор о представленном файле.

0

306

Похоже на ремаст апконверта сто первой копии. Такой хуйней занимался говнотерщик рестовратор АС Народный.

0

307

В приват Плюса вылажына обцыфр. Бориса-63 и пидора Курорта. Анс ХРАМ ВОЗДУХА. Как утвиржают лудшие оцифровшики инета запись Храма сделана в 2016г , а сама команда играла всю жисть в Ленинграде-городи

0

308

#p46920,Ленин Сити написал(а):

В приват Плюса вылажына обцыфр. Бориса-63 и пидора Курорта.

СДЕЛАЙТЕ СКРИН... я так понгимаю у вас есть доступ в приват ....а что этот курорт начал выставлять оц..и делится с людьми ...
перестал жопу вылизывать

0

309

youtube.com/watch?v=c7w_VweO--w

0

310

Друзья!
13 апреля в Шагале состоится вторая часть вечера памяти Аркадия Северного. К нам снова приедут легендарные люди -первый импресарио Северного -Рудольф Фукс,солист ансамбля Братья Жемчужные -Виктор Смирнов ,солисты ансамбля Ля Минор - Саня Ежов и Слава Шалыгин, Лев Сандюк, Алина Ивах, оркестр Klezmasters.
Перед концертом традиционное угощение самогоном.
Всех очень ждём в нашей домашней и тёплой атмосфере !
Справки и заказ билетов +74956788403

  d.radikal.ru/d03/1904/f0/986a2edb7780.jpg

0

311

Сообщение для !!!!!! Здравствуйте скажите пож. а как понимать - Вечер памяти ?????
Перечисленные гости будут кушать кашерную пищу или это будет конц. Может купон стоит купить со скидкой ?????
интересно а с собой можно забрать рыбу приготовленную шеф. повором .....

0

312

как понимать - Вечер памяти ?????
Перечисленные гости будут кушать кашерную пищу или это будет конц. Может купон стоит купить со скидкой ?????
интересно а с собой можно забрать рыбу приготовленную шеф. повором .....


Все вопросы и справки по указанному номеру: +74956788403

0

313

#p47248,!!!!!! написал(а):

Все вопросы и справки по указанному номеру: +74956788403

Они тут не размещали подобную рекл По этой причине вопрос Вам задан.
Если Вы явл. их представителем то оплатите рекламу ....

0

314

Паша сравни,это 1 одесский

yadi.sk/d/vgVVzQQBmrtopw

0

315

#p47301,Павлу Плотникову написал(а):

Паша сравни,это 1 одесский


--------------------------------------------------------------------------------
Проанализировано: А. Северный  / 1-й Одесский  концерт
--------------------------------------------------------------------------------

DR       Пик         RMSДлина    Трек
--------------------------------------------------------------------------------
DR7        0.00 дБ    -8.95 дБ      4:05 ?-Дорожка 1
DR8        0.00 дБ   -10.00 дБ      2:31 ?-Дорожка 2
DR6        0.00 дБ    -7.97 дБ      5:33 ?-Дорожка 3
DR6        0.00 дБ    -7.97 дБ      3:10 ?-Дорожка 4
DR7        0.00 дБ    -9.11 дБ      2:27 ?-Дорожка 5
DR7        0.00 дБ    -8.59 дБ      2:36 ?-Дорожка 6
DR7        0.00 дБ    -8.81 дБ      2:25 ?-Дорожка 7
DR8        0.00 дБ    -9.70 дБ      3:26 ?-Дорожка 8
DR7        0.00 дБ    -9.18 дБ      2:22 ?-Дорожка 9
DR6        0.00 дБ    -8.21 дБ      3:54 ?-Дорожка 10
DR6        0.00 дБ    -8.29 дБ      2:51 ?-Дорожка 11
DR7        0.00 дБ    -9.32 дБ      2:45 ?-Дорожка 12
DR7        0.00 дБ   -10.03 дБ      2:25 ?-Дорожка 13
DR8        0.00 дБ   -10.09 дБ      4:31 ?-Дорожка 14
DR9        0.00 дБ   -11.89 дБ      1:52 ?-Дорожка 15
DR8        0.00 дБ   -10.14 дБ      3:39 ?-Дорожка 16
DR7        0.00 дБ    -8.75 дБ      4:32 ?-Дорожка 17
DR7        0.00 дБ   -10.34 дБ      5:22 ?-Дорожка 18
DR8        0.00 дБ   -10.50 дБ      3:30 ?-Дорожка 19
DR7        0.00 дБ    -9.87 дБ      3:25 ?-Дорожка 20
DR6        0.00 дБ    -8.95 дБ      3:08 ?-Дорожка 21
DR6        0.00 дБ    -8.17 дБ      5:35 ?-Дорожка 22
DR7        0.00 дБ    -9.15 дБ      3:03 ?-Дорожка 23
--------------------------------------------------------------------------------

Количество треков: 23
Официальное значение DR: DR7
Работа редактора и с такой динамикой только на мыльнице слуХать

DR как минь 11, лучше 13
Оцифровка с ОЛИМПА, скорей всего от АНДРЕЯ

http://s7.uploads.ru/t/bqu3n.jpg

Отредактировано paveltmb68 (2019-04-11 20:43:42)

0

316

зачем же вы так мучаете этот концерт?

0

317

Сообщение для коллекс
ЕГО НЕ КТО НЕ..
ПРОСТО МОЖНО УВИДЕТЬ РАЗНЫЕ ОБРАБОТКИ В РЕДАКТОРАХ
Спросили, я конкретно ОТВЕТИЛ
Что лучше или хуже , каждый решает сам
Более натурально звучит Аркадий Северный. 1-й Одесский концерт. 1975. Оцифровка с бобины.

https://yadi.sk/d/SRiMLDkaGJJydQ
Для себя поправил  :music:

http://s9.uploads.ru/t/qsKS3.jpg

--------------------------------------------------------------------------------
Проанализировано: Катушка-Северный  / 1-й Одесский  концерт
--------------------------------------------------------------------------------

DR       Пик         RMSДлина    Трек
--------------------------------------------------------------------------------
DR12      -1.16 дБ   -16.27 дБ      4:17 ?-01. Здравствуйте, моё почтенье
DR11      -2.08 дБ   -16.45 дБ      2:40 ?-02. Вы хочете песен Их есть у меня
DR11      -1.89 дБ   -16.12 дБ      5:47 ?-03. На Одессе жил Алёша рыжий
DR12      -0.89 дБ   -16.13 дБ      3:21 ?-04. Жил я в шумном городе Одесса
DR11      -0.78 дБ   -16.28 дБ      2:37 ?-05. Стоял я раз на стрёме
DR11      -0.90 дБ   -16.20 дБ      2:45 ?-06. Дамы - господа! Других не вижу здесь
DR10      -3.34 дБ   -15.91 дБ      2:33 ?-07. Алёшка жарил на баяне
DR12      -1.08 дБ   -16.14 дБ      3:36 ?-08. Мы на занятиях куплеты распевали
DR11      -1.74 дБ   -16.23 дБ      2:37 ?-09. Мой приятель студент
DR11      -2.65 дБ   -16.12 дБ      4:08 ?-10. Бывало вспомню я (Сашка)
DR10      -3.11 дБ   -16.11 дБ      3:01 ?-11. Раз в Ростове-на-Дону
DR10      -3.23 дБ   -16.20 дБ      2:52 ?-12. А я один сидю на плинтюар
DR11      -2.05 дБ   -16.11 дБ      2:30 ?-13. Ах, Йозель, Йозель
DR11      -1.81 дБ   -16.22 дБ      4:33 ?-14. Шёл трамвай 10-й номер
DR12      -0.77 дБ   -16.05 дБ      3:55 ?-15. Здравствуйте, моё почтенье
DR12      -2.41 дБ   -15.78 дБ      4:48 ?-16. Ужасно шумно в доме Шмеерзона
DR11      -0.78 дБ   -15.78 дБ      5:42 ?-17. Не смотрите Вы так
DR11      -1.28 дБ   -16.91 дБ      3:52 ?-18. Гром прогремел, золяция идёт
DR10      -2.33 дБ   -15.76 дБ      3:28 ?-19. В семь сорок он подъедет
DR12      -0.33 дБ   -16.75 дБ      3:28 ?-20. Помню, помню, помню я
DR11      -1.83 дБ   -15.98 дБ      3:22 ?-21. Попурри на одесские темы (инструментал)
DR13      -0.54 дБ   -17.86 дБ      4:06 ?-22. На Дерибасовской открылася пивная
DR10      -2.53 дБ   -15.65 дБ      3:37 ?-23. Люблю я сорок градусов
DR10      -1.49 дБ   -15.80 дБ      6:10 ?-24. Летит паровоз по долинам и взгорьям
DR10      -4.04 дБ   -16.49 дБ      1:52 ?-25. В Одессе я родился
--------------------------------------------------------------------------------

Количество треков: 25
Официальное значение DR: DR11

Отредактировано paveltmb68 (2019-04-11 20:56:21)

0

318

вот прошу заценить ,цифранули добрые люди с касетки.

            https://transfiles.ru/qc3gm

0

319

Сообщение для мучитель

http://s8.uploads.ru/t/2ZWbp.jpg
Неудачное редактирование и тем более мп3  :crazyfun:

0

320

Неудачное редактирование

что такое редактирование?

0

321

Сообщение для мучитель
https://yandex.ru/search/?clid=2186617&text=редактирование аудио файлов&lr=13&redircnt=1555006933.1

http://s5.uploads.ru/t/F6QX5.jpg

Отредактировано paveltmb68 (2019-04-11 21:45:36)

0

322

что такое редактирование?

фазу исковеркали.
наверно хотели панораму  изменить ,сблизить каналы...А получился  голос  противофазным инструменталу.

0

323

концерт вот так звучал          ://cloud.mail.ru/public/556E/56dqukjXk

0

324

https://ok.ru/video/730846922101

0

325

:D

0

326

А может быть он хотя бы так должен звучать?
https://yadi.sk/d/a9uUD56L6kNI8Q

0

327

Да скоко уже можно издеватся над Фартовым Ядом?
Раз в полгода минимум эта тема поднимаца.
Ненадоело,извращенцы?
Самый лудший ремаст выкладывал на плюсе Леонид Нефтюганский,правда там скорость убыстрёная поэтому вокал АС неестественен.
Ну а самый естественый огрызок тут Мытищи скоко то лет назад выкладывали и нераз вроде. И нмкто ещё не перебил.

0

328

Сообщение для Малюта Скуратов

#p47314,Малюта Скуратов написал(а):

Да скоко уже можно издеватся над Фартовым Ядом?
Раз в полгода минимум эта тема поднимаца.
Ненадоело,извращенцы?
Самый лудший ремаст выкладывал на плюсе Леонид Нефтюганский,правда там скорость убыстрёная поэтому вокал АС неестественен.

Значит не сделал нормально   :crazyfun:
http://s3.uploads.ru/t/sLD6g.jpg

Отредактировано paveltmb68 (2019-04-12 07:32:14)

0

329

Ненадоело,извращенцы?


Да разве такой концерт может надоесть,ждём ,что на Пасху выложат полную версию этого концерта.

0

330

Да разве такой концерт может надоесть,

Такой кончерт конешно не может надоисть.
Настоибали извращенцы которые постояно издиваюца над его звуком.
И все свои раскаряки суда выкладывают.
Подождём Пасхи,можит и качество и полнота появица.

0

331

И все свои раскаряки суда выкладывают.


Ну,что поделаешь,если они  выросли на суррогатных записях и других не слышали....

0

332

Пока от Андрея оцифровка лучшая в сети

0

333

Пока от Андрея оцифровка лучшая в сети


Ну хорошего качества никто не выложит,эти хлопцы сразу себе в приват разместят и усё...

0

334

Самый лудший ремаст выкладывал на плюсе Леонид Нефтюганский,правда там скорость убыстрёная поэтому вокал АС неестественен

.

Я не ремаст выкладывал.а оцифровку из мытищинских копий.  А все тут только и ремастируют под свои вкусы и уши...
И главное не имея оригинального звучания пытаются доказать,что их вариант лучше звучит...
Знатоки чужих вкусов и ушей ...   :D

Пока от Андрея оцифровка лучшая в сети


Смотря для кого она лучшая.  И ,что вообще понимать под словами лучшая?
Я поставил фрагмент не  говоря лучшая или нет ,я сказал о расстановке каналов и панораме. Запись велась на два микрофона(это известно) и многие пытались и пытаются подстроить под себя. Но оригинальный звук был именно такой.

0

335

Ну хорошего качества никто не выложит,эти хлопцы сразу себе в приват разместят и усё...


Качество если и осталось то не у этих хлопцев...  Там одни понты и максимальные разрешения  с фотками аппаратуры.
Единственные островки качества -мытищинские и иже с ними. Всё остальное -копии со студий звукозаписи в лучшем случае.
Хорошее качество у Горловских коллексов, это факт. Но по Северному возможно мало материалов.
Я говорю о качестве звука на плёнках ,а не о ремастах и "доводках" под свои уши эквалайзерами и лимитерами.

0

336

:glasses:  Здесь я с тобой Леня нефтеюганский полностью согласен по поводу того что хорошее качество есть только у Горловских коллексов...только они хрен выложат в хорошем качестве звука эти записи...!!! Вон Сашу Горнячка на шансон плюсе так обидели что Саша Горнячок вообще забил на шансон плюс и не появляется там уже третий месяц...!!! :glasses:  :glasses:  :glasses:

0

337

Сообщение для Леонид Нефтеюганский

#p47321,Леонид нефтеюганский написал(а):

Смотря для кого она лучшая.  И ,что вообще понимать под словами лучшая?
Я поставил фрагмент не  говоря лучшая или нет ,я сказал о расстановке каналов и панораме. Запись велась на два микрофона(это известно) и многие пытались и пытаются подстроить под себя. Но оригинальный звук был именно такой.

Звук будет только у того кто писал и именно на том маге, а остальное уже ВСЕ ДОМЫСЛЫ
Звучание-это иллюзия , то что есть и что хочешь услышать
Из-за этого и обрабатывают под свой слух и технику   :crazyfun:
Есть только 2 критерия звучания
НРАВИТЬСЯ или НЕТ и почему
Скачать https://transfiles.ru/626yi

Отредактировано paveltmb68 (2019-04-12 09:40:31)

0

338

Здесь я с тобой Леня нефтеюганский полностью согласен по поводу того что хорошее качество есть только у Горловских коллексов...только они хрен выложат в хорошем качестве звука эти записи...!!! Вон Сашу Горнячка на шансон плюсе так обидели что Саша Горнячок вообще забил на шансон плюс и не появляется там уже третий месяц...!!! :glasses:  :glasses:  :glasses:

а что же все промолчали???
Вот сейчас посмотришь как на меня там луховнинский попрёт...   :D
Да мне ссать с высокой горки на его реплики.   А у Горловских всегда был  звук  , это не понты ВТО. Хотя они там тоже размещали релизы.

Звук будет только у того кто писал и именно на том маге, а остальное уже ВСЕ ДОМЫСЛЫ
Звучание-это иллюзия , то что есть и что хочешь услышать
Из-за этого и обрабатывают под свой слух и технику   :crazyfun:
Есть только 2 критерия звучания
НРАВИТЬСЯ или НЕТ и почему


тут бы надо добавить - Я так думаю...     Потому,что лично я думаю немного иначе     :dontknow:

Нравится или нет мы не рассматриваем, мы рассматриваем оригинальность фонограммы или "вкусовые добавки"
Если просит аудитория,то можно поработать и предложить своё вариант звучания, в противном случае навязывать не надо. А то получается после каждой выкладки фонограмм, идут сплошные рукоделия...   :D
Жанр о котором идёт речь, ценен именно оригинальным звучанием, ну а каждый сам себе вправе эквалайзером подогнать разборчивость   :music:

Я так думаю. Возможно и ошибаюсь    :dontknow:

0

339

:D

0

340

Сообщение для Леонид Нефтеюганский

#p47325,Леонид Нефтеюганский написал(а):

Жанр о котором идёт речь, ценен именно оригинальным звучанием, ну а каждый сам себе вправе эквалайзером подогнать разборчивость   :music:

Оригинальное звучание есть только на оригинале или мастер ленте

#p47325,Леонид Нефтеюганский написал(а):

Я так думаю. Возможно и ошибаюсь

Все верно

Отредактировано paveltmb68 (2019-04-12 10:02:53)

0

341

Оригинальное звучание есть только на оригинале или мастер ленте


Буквоедство конечно никто не отменял, но здравый смысл тоже имеет право на существование...    :D
    Не так ли?
Я как-то выставил кусочек Химика тут в одной из тем. Там возможно вторая  с краю копия была    :mybb:   Но в таком звучании концерт   собирались купить...(огрызки с ВТО другая публика покупает)  Что уж говорить о первой копии,  не то, что об оригинале.

А почему ремасты не оцениваются? Ответ очевиден и даже глупо озвучивать его. Кто в теме прекрасно знают о чём речь, а  "а ля звукари" всё ищут своё звучание...     :flag:    Для них "...всё едино- апатиты и навоз...".

0

342

:D

0

343

концерт вот так звучал          ://pybhq.znvy.eh.r.ru.a2ip.ru/public/556E/56dqukjXk


Леонид, этот фрагмент отличается от того концерта, что вы выкладывали на Плюсе, вроде там папка называлась - ПО, вы тут наверно про неё тут сегодня писали:

Я не ремаст выкладывал.а оцифровку из мытищинских копий.


Так понимаю, что фрагмент и ПО (оцифровка из мытищинских копий) это из двух разных источников (или оцифровок) ?

0

344

Так понимаю, что фрагмент и ПО (оцифровка из мытищинских копий) это из двух разных источников (или оцифровок) ?

да совершенно верно, это разные звуки из разных копий .

0

345

да совершенно верно, это разные звуки из разных копий .


За концерт, что выкладывали на плюсе спасибо, чище в сети не встречал. А с той копии откуда фрагмент, я так понял концерт на расшар не покатит?

0

346

#p47320,халявщик написал(а):

Ну хорошего качества никто не выложит,эти хлопцы сразу себе в приват разместят и усё...

Ну Вы меня просто удивляете ..... Пусть они для начала выставят фрагмент из своего привата

Вы послушайте вот эти два вар из 326 поста и выскажите своё мнение

Analyzed folder: C:\compare\
----------------------------------------------------------------------------------------------
DR       Peak         RMS      Filename
----------------------------------------------------------------------------------------------

DR11    over    -12.72 dB Первый одесский (original).wav
DR11   -0.00 dB -14.36 dB Первый одесский (remaster).wav
----------------------------------------------------------------------------------------------

Number of files:    2
Official DR value:  DR11

0

347

Question

За концерт, что выкладывали на плюсе спасибо, чище в сети не встречал. А с той копии откуда фрагмент, я так понял концерт на расшар не покатит?

Вижу Вы оцениваете звук записей Северного не по стенографии   :D
в ветке 1й Одесский  я вчера выставил фрагмент другой оцифровки. Там я был под зарегистрированным ником  gluza потому что гостям там не оставить сообщение. Я Вас попросил бы сравнить-как на Ваш слух в сравнении с этим звуком что тут выложил?

Полного концерта у меня пока нет, но ...

Вот со стодвадцатой копии    https://cloud.mail.ru/public/24HZ/efntCpXeU

0

348

Вот со стодвадцатой копии


Шутите? Неужели есть ещё лучше? Не поленился, прожёг сей фрагмент и прослушал на железе. Я конечно оригиналов не слышал, но так для своего восприятия этому дал бы оценку минимум как наверное первой копии. После этого смешно стало читать дебаты в соседней ветке о этом концерте, что ведут там Федорцов (который утверждает что слышал оригинал), Плотников и Серж90.

0

349

Леонид,это у кого же такое качество концерта  сохранилось,просто слов нет?

0

350

По спермограмам у  этого огрызка картинка конэшно не фонтан.
Можно принять и за апконверт.
Но на ухо это обалденое какчество в сети подобнова не было не разу.
Спасибо Лёня-утёр нос всем цыфровальщикам.

0

351

собственно я и не спорю мужики...     :D
По этому в той теме даже и не возражал...    :dontknow:

0

352

Леонид,так откуда дровишки? :cool:

0

353

По фиг откуда чо. Леонид Нефтеюганский ответь:
Сколько стоит полный концерт в цифре и если вдруг а можит буть и лента сохранилась и тода тоже сколькi ?

0

354

просили не рекламировать  :dontknow:

0

355

Жаль. ну раз деньги не нужны.....
опьять ваш коллексовские зашiфровки.....

0

356

да можно и так догодаться откуда у нефиюганского сей конерт.

0

357

да можно и так догодаться откуда у нефиюганского сей конерт.


Из под юбки лоовской Дуняшки или из мытищенских золотых хлебниц?

0

358

DR       Peak         RMS      Filename


Вся эта хуйня на хуй не нужна если ушами слышно что у Нефьюганского чище. Плотник ухи протри или к ЛОР врачу сходи пусть он вытащет из твоих ушей DR111over

0

359

ну дуняшку лёня не знает значит второе....

0

360

значит второе....

значит надо раскулачивать вторых!

0

361

как раскулаивать :tomato:   лоов было попробовал,не получилось.

0

362

Мы пойдём другим путём!

0

363

может не стоим ....70 лет  шли так и не дошли....

0

364

Сообщение для Question

#p47427,Question написал(а):

Шутите? Неужели есть ещё лучше? Не поленился, прожёг сей фрагмент и прослушал на железе. Я конечно оригиналов не слышал, но так для своего восприятия этому дал бы оценку минимум как наверное первой копии.

Разочарую вас это оцифровка со сменой каналов и нарушена фаза  :crazyfun:

#p47442,??? написал(а):

может не стоим ....70 лет  шли так и не дошли....

Вся жизнь впереди... :dontknow:

Скачать из чего это делалось https://transfiles.ru/ykcem

http://s9.uploads.ru/t/oNfMw.png

Отредактировано paveltmb68 (2019-04-13 17:17:08)

0

365

не разочаруете,выложите лучше,а все эти графики  ,фигня собачья ........

0

366

#p47443,paveltmb68 написал(а):

Разочарую вас это оцифровка со сменой каналов и нарушена фаза 

Скачать из чего это делалось https://transfiles.ru/ykcem


почитал я эту смехопанораму...   :D    Очень неумелая халтура !!!  Просто испохабил и загнал "под одеяло " оригинальный звук...  На все твои поделки , напрашивается цитата из знаменитой басни И.А. Крылова:
"...а вы друзья  как ни садитесь, всё ж в музыканты не годитесь..."    :D    Не умеешь-не берись!

Кстати по поводу фаза-маза и каналы...  Если не знаком с элементарной  звукозаписью, то хоть промолчи не выдавай себя.  :tired:

А если кому интересно,то при оцифровках  на разных магнитофонах,особенно в наши дни ,когда все любят "отпрофилакчивать" технику,возможны и нестыковки с каналами или точными подстройками головок(именно по фазе сигнала двух каналов П.и Л.),но это всё мелочи за которыми некоторые любители спермографов охотятся...    :crazyfun:  Даже не понимая сути, а так лишь бы пыль в глаза пустить,как собственно и с остальными "спермальными" параметрами.
Речь идёт о качестве звука на ленте,а  оцифровать правильно и потом отредактировать под необходимые станларты-это как два пальца...  Лично для меня никакого труда не составляет.
Но ленты у меня нет. А фрагмент оцифрован другими людьми.

Вот   и весь расклад .   :dontknow:

Отредактировано gluza (2019-04-13 18:21:16)

0

367

Сообщение для gluza

#p47445,gluza написал(а):

Речь идёт о качестве звука на ленте,а  оцифровать правильно и потом отредактировать под необходимые станларты-это как два пальца...  Лично для меня никакого труда не составляет.

Флаг тебе в руки ПОСМОТРИМ , что ты сможешь сделать из оцифровки Андрея
Как я понял, только ОБОСРАТСЯ при всех

:crazyfun:
Формат как в исходнике оцифровки

Отредактировано paveltmb68 (2019-04-13 18:34:38)

0

368

:D

0

369

#p47446,paveltmb68 написал(а):

Флаг тебе в руки ПОСМОТРИМ , что ты сможешь сделать из оцифровки Андрея

я не знаю никакого Андрея и его оцифровки меня совсем не интересуют,:...  у меня всё своё и бельё и жильё..." :crazyfun:
а типа "мастерингом" не занимаюсь,
если слушаю,то только вот такое качество звука    https://cloud.mail.ru/public/3z8Q/3U4RrH42e
пусть и частотки не сидишные,но это Северный, тут совершенно другие критерии ...

0

370

Павел, это пустой номер... Иллюзии нравятся пользователям. Просто у Вас нет станка который заворачивает говно в золочёные обёртки. А у других этот процесс отработан за годы прозябаний на сайтах и наличия пачки редакторов + хорошо подвешенный язык. Но они всегда скажут, что это коллекционный вариант и "кастрУльный звон" естественный, оригинальный... Чуть лучше, чуть хуже, итог один - та же хрень.
Артисты...

0

371

Пацаны идите лучше ПинФлоев с Лесоповалом ремастируйте. Северный это не ваше. Артисты...

0

372

#p47449,Sergio N90 написал(а):

Просто у Вас нет станка который заворачивает говно в золочёные обёртки.

как это нет, у него целая кагорта плюгинов для этой цели... И он уже продемонстрировал чуть выше, как можно из звука говно  слепить и завернуть в обёртку с шильдиком-     

Скачать из чего это делалось https://transfiles.ru/ykcem


а все свои "научные фантазии "про звоны-перезвоны оставьте  для лохов восклицающих- "Вот так зазвучало !!!"
В этой ветке вам уже сказали-ребята, вы просто смешны в своих потугах...   :D   

После этого смешно стало читать дебаты в соседней ветке о этом концерте, что ведут там Федорцов (который утверждает что слышал оригинал), Плотников и Серж90.


продолжать сию беседу не вижу смысла,  иначе дойдёт до личностных оскорблений.
Удачи.

0

373

продолжать сию беседу не вижу смысла


Праильно! они же круче Алана Парсона раз его ремастируют. Ты показал звук АС - утёр им хари,пущай подмоюца и золотой обёркой жёпу вытрут.

0

374

Сообщение для кастрУльный звон Вы малость претормозите и ведите поскромнее себя тут не привоз. и каждый в праве высказывать своё мнение Вам никто тут не хамил.

0

375

Вы малость претормозите и ведите поскромнее себя тут не привоз. и каждый в праве высказывать своё мнение Вам никто тут не хамил.

А кто хамит??? Каждый высказывает своё мнение!!! А вы на привозе были??? Я там хамства не слышал!!! Так что притормозите немного.... Извините за резкость если что...

0

376

Извиняюсь.Ну и шильдик им тудаже в обёрку)))

0

377

Сообщение для Sergio N90

#p47449,Sergio N90 написал(а):

Павел, это пустой номер... Иллюзии нравятся пользователям

Умельцев много и по этому не кто не будет показывать как надо возвращать звучание и динамику обратно
Как говориться
СОБАКА БРЕШИТ - КАРАВАН ИДЕТ
писать,  тем более глупости научились, но с.. пока не дружат
:crazyfun:

Отредактировано paveltmb68 (2019-04-13 19:54:35)

0

378

Хватит вам мучаться!Держи Павел "Фартовый яд" 16/44 из привата,я сегодня добрый.Бросай тут мастерить из мр3 огрызков,присоединяйся к нашему Vip-клубу в Высоком разрешении.CUE разметку надеюсь  сообразишь как составить.

https://yadi.sk/d/VQW4Wdr1LFXaoA

Аркадий Северный - Фартовый яд 1975

01.Здравствуйте,моё почтенье
02.Вы хочете песен,их есть у меня
03.На Одессе жил Алёша рыжий
04.Жил я в шумном городе Одесса
05.Стоял я раз на стрёме
06.Дамы,господа
07.Алёшка жарил на баяне
08.Мы на занятиях куплеты распевали
09.Мой приятель-студент
10.Сашка

11.Раз в Ростове-на-Дону
12.Один сижу на плинтуаре
13.Ах,Йозель
14.Шёл трамвай 10-й номер
15.Сердечный телефон
16.Шумно в доме Шмеерзона
17.Чёрная моль
18.Гром прогремел,золяция идёт
19.Семь сорок
20.Помню я 
21.Попурри

0

379

как надо возвращать звучание и динамику обратно


Сам то понял чо за глупость написал?

0

380

Сообщение для кастрУльный звон
Сразу скажу ник у тебя раньше был и так по сети известен  :flag:

Отредактировано paveltmb68 (2019-04-13 20:06:23)

0

381

Сообщение для Димон
Это от Андрея оцифровка   :D
Он у меня есть

Отредактировано paveltmb68 (2019-04-13 20:15:05)

0

382

paveltmb68,Ты послушай,другая оцифровка  совсем. :cool:

0

383

Сразу скажу ник у тебя раньше был и так по сети известен


Это от Андрея оцифровка


Ты чо с дуба упал? Ты хоть знаешь откуда исходник у Андрюшки? Он в 90х у Бархата со студии Восток в Свердловске писал со стодвадцать пятой копии. :D
Где ты там качество увидел? Скачай фрагментики от Леонида хочь звук натуральный услышишь.

0

384

Опа-ньки,подарочек!Это не Шалягина и получше чем апконверты от Нефтеюганского.Сделайте Куе кто-нибудь. :cool:

0

385

А.И.Создайте для Павла и Серджио  отдельную тему,пусть они там  учат и учатся сами как надо мозги парить.

0

386

Опа-ньки,подарочек!Это не Шалягина и получше чем апконверты от Нефтеюганского.Сделайте Куе кто-нибудь

Насмешил. Наверно с Дайны цыфранул?

0

387

Как порезать можно? :canthearyou:

0

388

Сообщение для Фраер ушастый
лови

Как создать CUE файл

Можешь и трек послушать https://transfiles.ru/hv1ui

#p47464,??? написал(а):

А.И.Создайте для Павла и Серджио  отдельную тему,пусть они там  учат и учатся сами как надо мозги парить.

Научить можно , только того, кто хочет
Вы видно уже дрессировки не поддаетесь из-за отсутствия, ну сами знаете , чего у вас нет

:crazyfun:  :crazy:

Отредактировано paveltmb68 (2019-04-13 21:40:06)

0

389

А скрипка тут зачётно звучит! :cool:  Держи CUE Фраер ушастый.   :rofl:

https://drop.me/o21xgJ

0

390

Моя обцыфровка самая лудшая ! Но вам ее не видат

0

391

Сообщение для ЖЛОБ
Скрипка должна звучать хотя бы так...
https://yadi.sk/d/l5BlVJSKMqyOXA

0

392

Может у меня железо не совершенное,но ремастер звучит как мр3 64 ,на "Старом радио"у Метёлкина.

0

393

#p47468,Жлоб написал(а):

Держи CUE Фраер ушастый

у него уши опухли скачивать по этой ссылке

#p47471,Жлоб написал(а):

Может у меня железо не совершенное,но ремастер звучит как мр3 64 ,на "Старом радио"у Метёлкина.

Тогда остаётся заплатить итьке 2000р и вступить в его клуб .... У него первая копия или орегинал я щас не помню

0

394

Сообщение для Жлоб
Лучше уши...
Напиши на чем слушаешь и если реалтек то не отвечай
скачать https://transfiles.ru/aalwm

Отредактировано paveltmb68 (2019-04-14 10:05:37)

0

395

Странно,вчера ссылка работала,вот свежая: https://dropmefiles.com/qxGM7

А слуХаем мы Павел все на бытовых компах. :yep:

0

396

Сообщение для Жлоб

#p47475,Жлоб написал(а):

А слуХаем мы Павел все на бытовых компах. :yep:

А еще какие есть??
Если дома, то домашний
послуХай https://transfiles.ru/aalwm

Отредактировано paveltmb68 (2019-04-14 10:45:28)

0

397

Сообщение для Жлоб всё нормально щас Спасибо

http://s8.uploads.ru/rYBZA.jpg
http://s3.uploads.ru/4PRT6.png

FILE "Аркадий Северный - Фартовый яд 1975.flac" WAVE

TRACK 01 AUDIO
    TITLE "Аркадий Северный"
    PERFORMER "01.Здравствуйте,моё почтенье"
    INDEX 01 00:00:00
TRACK 02 AUDIO
    TITLE "Аркадий Северный"
    PERFORMER "02.Вы хочете песен,их есть у меня"
    INDEX 01 04:11:59
TRACK 03 AUDIO
    TITLE "Аркадий Северный"
    PERFORMER "03.На Одессе жил Алёша рыжий"
    INDEX 01 06:47:68
TRACK 04 AUDIO
    TITLE "Аркадий Северный"
    PERFORMER "04.Жил я в шумном городе Одесса"
    INDEX 01 12:32:01
TRACK 05 AUDIO
    TITLE "Аркадий Северный"
    PERFORMER "05.Стоял я раз на стрёме "
    INDEX 01 15:52:33
TRACK 06 AUDIO
    TITLE "Аркадий Северный"
    PERFORMER "06.Дамы,господа"
    INDEX 01 18:26:54
TRACK 07 AUDIO
    TITLE "Аркадий Северный"
    PERFORMER "07.Алёшка жарил на баяне"
    INDEX 01 21:10:14
TRACK 08 AUDIO
    TITLE "Аркадий Северный"
    PERFORMER "08.Мы на занятиях куплеты распевали"
    INDEX 01 23:43:46
TRACK 09 AUDIO
    TITLE "Аркадий Северный"
    PERFORMER "09.Мой приятель-студент"
    INDEX 01 27:21:03
TRACK 10 AUDIO
    TITLE "Аркадий Северный"
    PERFORMER "10.Сашка"
    INDEX 01 29:55:51
TRACK 11 AUDIO
    TITLE "Аркадий Северный"
    PERFORMER "11.Раз в Ростове-на-Дону"
    INDEX 01 34:05:68
TRACK 12 AUDIO
    TITLE "Аркадий Северный"
    PERFORMER "12.Один сижу на плинтуаре "
    INDEX 01 37:10:44
TRACK 13 AUDIO
    TITLE "Аркадий Северный"
    PERFORMER "13.Ах,Йозель "
    INDEX 01 40:03:72
TRACK 14 AUDIO
    TITLE "Аркадий Северный"
    PERFORMER "14.Шёл трамвай 10-й номер"
    INDEX 01 42:36:43
TRACK 15 AUDIO
    TITLE "Аркадий Северный"
    PERFORMER "15.Сердечный телефон"
    INDEX 01 47:08:53
TRACK 16 AUDIO
    TITLE "Аркадий Северный"
    PERFORMER "16.Шумно в доме Шмеерзона "
    INDEX 01 51:01:53
TRACK 17 AUDIO
    TITLE "Аркадий Северный"
    PERFORMER "17.Чёрная моль "
    INDEX 01 55:52:12
TRACK 18 AUDIO
    TITLE "Аркадий Северный"
    PERFORMER "18.Гром прогремел,золяция идёт"
    INDEX 01 61:36:04
TRACK 19 AUDIO
    TITLE "Аркадий Северный"
    PERFORMER "19.Семь сорок"
    INDEX 01 65:05:02
TRACK 20 AUDIO
    TITLE "Аркадий Северный"
    PERFORMER "20.Помню я "
    INDEX 01 68:42:69
TRACK 21 AUDIO
    TITLE "Аркадий Северный"
    PERFORMER "21.Попурри "
    INDEX 01 72:08:29

0

398

0

399

Aleksandr, Концерт магический,вчера пару раз слушал,сегодня опять включил.У меня на AIMP плеере тоже всё нормально работает.Да неплохой звук,особенно в конце попурри.Это же запись,подумать только - 1975 года,хорошо хоть в таком качестве сейчас слушаем. :music:

0

400

Сообщение для Жлоб Если я Вам отвечу честно и своё мнение .. говнготёркам не будет краёв .........
По этой причине . Пусть каждый выбирает и слушает то что ему нравится .... Поясню Вам ..... Чтоб называть выставленую запись гов...м или кастратом Нужно
иметь духу и желание выставить в лучшем качестве и это не оспаривается .... У меня есть трек с этого концерта и если я выставлю
Одни назовут меня негодяем Другие скажут что это раздутый мп3 ... треть будут говорить Сколько стоит . Ну и т.д ..........
Вы сами подумайте .... Вы в своё время по старым деньгам когда з/п была 120р купили запись за 500р . Хранили много лет ....
Вы выставите её щас на шару ???? и для кого ????? чтоб услышать оскорбления в свой адрес ??? Вы не смешите .....
мало того .... Вам ещё и скажут что тем что вы поделились щас продают На аукцион блять в приват выставили .....
Ну и как ?????? .....................
Ну и про Леонида напишу пусть не огорчается Он выставил То .что ему разрешили ..... и готов поспорить что он понял меня ...........

0


Вы здесь » Tutnet-fufla » Североведы » Это всем североведам Часть2