Это интересно Скрыть

Tutnet-fufla

Информация о пользователе

Привет, Гость! Войдите или зарегистрируйтесь.


Вы здесь » Tutnet-fufla » Отечественный шансон.Авторская песня » [16/44] Александр Шеваловский - Первая Встреча с анс. "Обертон" (1977)


[16/44] Александр Шеваловский - Первая Встреча с анс. "Обертон" (1977)

Сообщений 1 страница 11 из 11

1

Все благодарности за данную оц.
Борис 63 и  Юрию ... Спасибо Вам парни

[16/44] Александр Шеваловский - Первая Встреча с анс. "Обертон" (1977) Lossless
Оцифровка с катушки
КАТУШКА ПРЕДОСТАВЛЕНА ДЛЯ ОЦИФРОВКИ нашим пользователем Юрием
Ник на форуме ВТ - Yurgen
За что ему - большое СПАСИБО!
!!

Оцифровано с Ревокса а 77
Записано на СД рекордер - Денон 1000

Треклист:

Сторона А:

01. Вступление + Здравствуйте и ради Бога...
02. Белочка в лесу одна жила...
03. Я люблю царевну...
04. Мой стоит ларёчек самый лучший...
05. Лёлю встретил, сделал ксиву...
06. С твоей маленькой тёплой ладони...
07. У Маруси кудри вьются...
08. Расскажу, друзья, про волшебницу...
09. Нынче школьник курит, пьёт...
10. Муры-шуры мы у Муры...
11. Давай станцуем рок'н'ролл...
12. Я бегу, я очень тороплюсь...
13. Много песен пропето вину...
14. Один приятель мой...
15. Чужая жена

Сторона Б:

16. Под кроной зелёной на маленькой даче...
17. Безработные мальчики, безработные девочки...
18. Позвонили ко мне очень поздно ночью...
19. Говорят, что в Израиле...
20. Я палатку расхлестаю...
21. Болезнь пришла негаданно...
22. Нецелованну девчонку я на хату пригласил...
23. Я убил её ранней весною...
24. Гулял я как-то с Шурою...
25. В милом городе Одесса...
26. Зачем шептала ты слова любви...

27. Мясоедовская улица моя (Алик Ошмянский)
28. Инструментал 7-40
29. Инструментал 7-40 (с обрывом)

Обе стороны в одном архиве (FLAC):

http://yadi.sk/d/svMGi16V21jRC (CUE в архиве)

Владелец:Файла  dimon48p
Спившийся Админ. муз. группы ВТ который банит и оскорбляет польз

0

2

[24/96] Александр Шеваловский - 1-ая встреча с анс.
Обертон (1977) Lossless

Переоцифровка с катушки Юрия!
Не забываем ему говорить - СПАСИБО

Треклист:

Сторона А:

01. Вступление
02. Здравствуйте и ради Бога...
03. Белочка в лесу одна жила...
04. Я люблю царевну...
05. Мой стоит ларёчек самый лучший...
06. Лёлю встретил, сделал ксиву...
07. С твоей маленькой тёплой ладони...
08. У Маруси кудри вьются...
09. Расскажу, друзья, про волшебницу...
10. Нынче школьник курит, пьёт...
11. Муры-шуры мы у Муры...
12. Давай станцуем рок'н'ролл...
13. Я бегу, я очень тороплюсь...
14. Много песен пропето вину...
15. Один приятель мой...
16. Чужая жена

Сторона Б:

17. Под кроной зелёной на маленькой даче...
18. Безработные мальчики, безработные девочки...
19. Позвонили ко мне очень поздно ночью...
20. Говорят, что в Израиле...
21. Я палатку расхлестаю...
22. Болезнь пришла негаданно...
23. Нецелованну девчонку я на хату пригласил...
24. Я убил её ранней весною...
25. Гулял я как-то с Шурою...
26. В милом городе Одесса...
27. Зачем шептала ты слова любви...

28. Мясоедовская улица моя (Алик Ошмянский)
29. Инструментал 7-40
30. Инструментал 7-40 (с обрывом)

Код:
REM GENRE "Shanson"
REM DATE 1977
REM COMMENT "Оцифровка - Борис 63"
TITLE "Первая Встреча с Обертоном"
PERFORMER "Александр Шеваловский"
FILE "Александр Шеваловский 1 концерт (1).flac" WAVE
  TRACK 01 AUDIO
TITLE "Вступление"
PERFORMER "Александр Шеваловский"
    INDEX 01 00:02:26
  TRACK 02 AUDIO
TITLE "Здравствуйте и ради Бога..."
PERFORMER "Александр Шеваловский"
    INDEX 01 00:46:14
  TRACK 03 AUDIO
TITLE "Белочка в лесу одна жила..."
PERFORMER "Александр Шеваловский"
    INDEX 01 02:48:42
  TRACK 04 AUDIO
TITLE "Я люблю царевну..."
PERFORMER "Александр Шеваловский"
    INDEX 01 05:32:64
  TRACK 05 AUDIO
TITLE "Мой стоит ларёчек самый лучший..."
PERFORMER "Александр Шеваловский"
    INDEX 01 07:28:10
  TRACK 06 AUDIO
TITLE "Лёлю встретил, сделал ксиву..."
PERFORMER "Александр Шеваловский"
    INDEX 01 12:24:39
  TRACK 07 AUDIO
TITLE "С твоей маленькой тёплой ладони..."
PERFORMER "Александр Шеваловский"
    INDEX 01 17:46:11
  TRACK 08 AUDIO
TITLE "У Маруси кудри вьются..."
PERFORMER "Александр Шеваловский"
    INDEX 01 20:24:13
  TRACK 09 AUDIO
TITLE "Расскажу, друзья, про волшебницу..."
PERFORMER "Александр Шеваловский"
    INDEX 01 22:00:34
  TRACK 10 AUDIO
TITLE "Нынче школьник курит, пьёт..."
PERFORMER "Александр Шеваловский"
    INDEX 01 25:25:44
  TRACK 11 AUDIO
TITLE "Муры-шуры мы у Муры..."
PERFORMER "Александр Шеваловский"
    INDEX 01 27:52:69
  TRACK 12 AUDIO
TITLE "Давай станцуем рок'н'ролл..."
PERFORMER "Александр Шеваловский"
    INDEX 01 30:36:51
  TRACK 13 AUDIO
TITLE "Я бегу, я очень тороплюсь..."
PERFORMER "Александр Шеваловский"
    INDEX 01 33:15:52
  TRACK 14 AUDIO
TITLE "Много песен пропето вину..."
PERFORMER "Александр Шеваловский"
    INDEX 01 37:20:20
  TRACK 15 AUDIO
TITLE "Один приятель мой..."
PERFORMER "Александр Шеваловский"
    INDEX 01 39:16:02
  TRACK 16 AUDIO
TITLE "Чужая жена"
PERFORMER "Александр Шеваловский"
    INDEX 01 42:21:56
FILE "Александр Шеваловский 1 концерт (2).flac" WAVE
  TRACK 17 AUDIO
TITLE "Под кроной зелёной на маленькой даче..."
PERFORMER "Александр Шеваловский"
    INDEX 01 00:05:10
  TRACK 18 AUDIO
TITLE "Безработные мальчики, безработные девочки..."
PERFORMER "Александр Шеваловский"
    INDEX 01 02:45:42
  TRACK 19 AUDIO
TITLE "Позвонили ко мне очень поздно ночью..."
PERFORMER "Александр Шеваловский"
    INDEX 01 06:46:01
  TRACK 20 AUDIO
TITLE "Говорят, что в Израиле..."
PERFORMER "Александр Шеваловский"
    INDEX 01 10:27:29
  TRACK 21 AUDIO
TITLE "Я палатку расхлестаю..."
PERFORMER "Александр Шеваловский"
    INDEX 01 14:30:73
  TRACK 22 AUDIO
TITLE "Болезнь пришла негаданно..."
PERFORMER "Александр Шеваловский"
    INDEX 01 18:29:02
  TRACK 23 AUDIO
TITLE "Нецелованну девчонку я на хату пригласил..."
PERFORMER "Александр Шеваловский"
    INDEX 01 20:37:24
  TRACK 24 AUDIO
TITLE "Я убил её ранней весною..."
PERFORMER "Александр Шеваловский"
    INDEX 01 24:03:50
  TRACK 25 AUDIO
TITLE "Гулял я как-то с Шурою..."
PERFORMER "Александр Шеваловский"
    INDEX 01 26:54:51
  TRACK 26 AUDIO
TITLE "В милом городе Одесса..."
PERFORMER "Александр Шеваловский"
    INDEX 01 31:09:00
  TRACK 27 AUDIO
TITLE "Зачем шептала ты слова любви..."
PERFORMER "Александр Шеваловский"
    INDEX 01 35:47:23
  TRACK 28 AUDIO
TITLE "Мясоедовская улица моя"
PERFORMER "Алик Ошмянский"
    INDEX 01 38:18:62
  TRACK 29 AUDIO
TITLE "Инструментал 7-40"
PERFORMER "-^-"
    INDEX 01 40:56:08
  TRACK 30 AUDIO
TITLE "Инструментал 7-40 (с обрывом)"
PERFORMER "-^-"
    INDEX 01 44:23:63
FLAC (без CUE):
============================================

ссылка 1 сторона

https://disk.yandex.ru/public/?hash=9EdJrqaSiG6z+ok1OE2rRHLojdCKmsZJ6SEaftWZUvI=

ссылка 2 сторона

https://disk.yandex.ru/public/?hash=J5XrPxoRRF/52Ue/Z6iPFAfYytnzwFoESkmBeowNhPg=

Спасибо парни
А ты Боря Извини меня Перед тем как писать оскорбления в мой адрес.
обвинять в воровстве альбомов и ссылок Читаем ВСЕ вот это

http://f16.ifotki.info/thumb/8b0b5d164a1112efc129f72610a4b8705f1cee181418631.jpg

FLAC+*.CUE (обе стороны катушки):

https://disk.yandex.ru/public/?hash=du0GTOsoYQao9BfvGQCAtD+SxidbgBwO4A7o+Ak9Gtk=

=========================================

mp3--320kbps:

https://disk.yandex.ru/public/?hash=RhoqZbnGro5Qc6hS1t6HCKAj79OUUTBSipg3FVcXBRY=

0

3

Что и это не интересно???  Можект кто то в лучшем качестве предложит ??? я куплю и выставлю тут ...Неужели люди которые сидели цыфровали не достойны прочитать одно слово в свой адрес просто  - Спасибо ... Что все умные стали ???? или гордые

0

4

Ну щас бомба будет я так думаю...

0

5

Ну что ж Боря давай порадуй старика выстави эту песню чтоб душа за пела ....
Я покупал эту запись уц одного известного барыги . но нае...и меня тогда ...

[audio]http://dl.waix.ru/5dcbebf69.mp3[/audio]
Чуть не забыл пожалуй я приму подарок Вроде и ручки красивые и огоньки зелёным горят ....
и крышечка есть .

=Spoiler написал(а):

http://savepic.ru/11911541.jpg


димуля что то не режется на треки твой куй . ты уж сразу делай по трекам ...

0

6

(24/96) Александр Шеваловский с ансамблем - ОБЕРТОН- концетр №1 (lossless)

Оцифровка БОРИСА 63 с катушки Аркадия
Спасибо ему огромное
Подающий аппарат - на фото уйдёт в подарок А.И


1 ст

https://yadi.sk/mail/?hash=mj5tjRNXil10R7hWUkqhBdsSCMIF5AE5raDqObf7ZEM=&uid=423865181

2 ст

https://yadi.sk/mail/?hash=jZFtOYFbzYwpI5pS2bC/h7K0wtjf6KxDTnbivfZ5YQE=&uid=423865181

куй
https://yadi.sk/d/qbgWyzT6xAVzm
https://yadi.sk/d/_RBCvAaRxAW24

320

https://yadi.sk/mail/?hash=EgJ5GXgleC6DMBF4+VBYNfKOnh4mn+mX7DHGwURI/U4=&uid=252251247

0

7

01 Александр Шеваловский - Вступление
02 Александр Шеваловский - Здравствуйте и ради Бога...
03 Александр Шеваловский - Белочка в лесу одна жила...
04 Александр Шеваловский - Я люблю царевну...
05 Александр Шеваловский - Мой стоит ларёчек самый лучший...
06 Александр Шеваловский - Лёлю встретил, сделал ксиву...
07 Александр Шеваловский - С твоей маленькой тёплой ладони...
08 Александр Шеваловский - У Маруси кудри вьются...
09 Александр Шеваловский - Расскажу, друзья, про волшебницу...
10 Александр Шеваловский - Муры-шуры мы у Муры...
11 Александр Шеваловский - Давай станцуем рок'н'ролл...
12 Александр Шеваловский - Я бегу, я очень тороплюсь...
13 Александр Шеваловский - Много песен пропето вину...
14 Александр Шеваловский - Один приятель мой...

Сторона Б:

01 Александр Шеваловский - Чужая жена
02 Александр Шеваловский - Под кроной зелёной на маленькой даче...
03 Александр Шеваловский - Безработные мальчики, безработные девочки...
04 Александр Шеваловский - Позвонили ко мне очень поздно ночью...
05 Александр Шеваловский - Говорят, что в Израиле...
06 Александр Шеваловский - Я палатку расхлестаю...
07 Александр Шеваловский - Болезнь пришла негаданно...
08 Александр Шеваловский - Нецелованну девчонку я на хату пригласил...
09 Александр Шеваловский - Я убил её ранней весною...
10 Александр Шеваловский - Гулял я как-то с Шурою...
11 Александр Шеваловский - В милом городе Одесса...
12 Александр Шеваловский - Зачем шептала ты слова любви...

REM GENRE "Блат"
REM DATE 1977
REM COMMENT "Оцифровка - Борис 63"
TITLE "Первая Встреча с ансанблем Обертон"
PERFORMER "Александр Шеваловский"
FILE "1 ст.flac" WAVE
  TRACK 01 AUDIO
TITLE "Вступление"
PERFORMER "Александр Шеваловский"
    INDEX 01 00:02:46
  TRACK 02 AUDIO
TITLE "Здравствуйте и ради Бога..."
PERFORMER "Александр Шеваловский"
    INDEX 01 00:47:01
  TRACK 03 AUDIO
TITLE "Белочка в лесу одна жила..."
PERFORMER "Александр Шеваловский"
    INDEX 01 02:51:49
  TRACK 04 AUDIO
TITLE "Я люблю царевну..."
PERFORMER "Александр Шеваловский"
    INDEX 01 05:42:63
  TRACK 05 AUDIO
TITLE "Мой стоит ларёчек самый лучший..."
PERFORMER "Александр Шеваловский"
    INDEX 01 07:42:51
  TRACK 06 AUDIO
TITLE "Лёлю встретил, сделал ксиву..."
PERFORMER "Александр Шеваловский"
    INDEX 01 12:49:20
  TRACK 07 AUDIO
TITLE "С твоей маленькой тёплой ладони..."
PERFORMER "Александр Шеваловский"
    INDEX 01 18:23:52
  TRACK 08 AUDIO
TITLE "У Маруси кудри вьются..."
PERFORMER "Александр Шеваловский"
    INDEX 01 21:07:72
  TRACK 09 AUDIO
TITLE "Расскажу, друзья, про волшебницу..."
PERFORMER "Александр Шеваловский"
    INDEX 01 22:48:43
  TRACK 10 AUDIO
TITLE "Муры-шуры мы у Муры..."
PERFORMER "Александр Шеваловский"
    INDEX 01 26:20:43
  TRACK 11 AUDIO
TITLE "Давай станцуем рок'н'ролл..."
PERFORMER "Александр Шеваловский"
    INDEX 01 29:10:00
  TRACK 12 AUDIO
TITLE "Я бегу, я очень тороплюсь..."
PERFORMER "Александр Шеваловский"
    INDEX 01 31:55:48
  TRACK 13 AUDIO
TITLE "Много песен пропето вину..."
PERFORMER "Александр Шеваловский"
    INDEX 01 36:09:26
  TRACK 14 AUDIO
TITLE "Один приятель мой..."
PERFORMER "Александр Шеваловский"
    INDEX 01 38:12:30
  TRACK 15 AUDIO
TITLE "-"
PERFORMER "-"
    INDEX 01 41:18:39
Код:
REM GENRE "Блат"
REM DATE 1977
REM COMMENT "Оцифровка - Борис 63"
TITLE "Первая Встреча с ансанблем Обертон"
PERFORMER "Александр Шеваловский"
FILE "2 ст.flac" WAVE
  TRACK 01 AUDIO
TITLE "Чужая жена"
PERFORMER "Александр Шеваловский"
    INDEX 01 00:03:03
  TRACK 02 AUDIO
TITLE "Под кроной зелёной на маленькой даче..."
PERFORMER "Александр Шеваловский"
    INDEX 01 03:09:50
  TRACK 03 AUDIO
TITLE "Безработные мальчики, безработные девочки..."
PERFORMER "Александр Шеваловский"
    INDEX 01 05:59:62
  TRACK 04 AUDIO
TITLE "Позвонили ко мне очень поздно ночью..."
PERFORMER "Александр Шеваловский"
    INDEX 01 10:15:48
  TRACK 05 AUDIO
TITLE "Говорят, что в Израиле..."
PERFORMER "Александр Шеваловский"
    INDEX 01 14:09:50
  TRACK 06 AUDIO
TITLE "Я палатку расхлестаю..."
PERFORMER "Александр Шеваловский"
    INDEX 01 18:27:16
  TRACK 07 AUDIO
TITLE "Болезнь пришла негаданно..."
PERFORMER "Александр Шеваловский"
    INDEX 01 22:39:02
  TRACK 08 AUDIO
TITLE "Нецелованну девчонку я на хату пригласил..."
PERFORMER "Александр Шеваловский"
    INDEX 01 24:54:15
  TRACK 09 AUDIO
TITLE "Я убил её ранней весною..."
PERFORMER "Александр Шеваловский"
    INDEX 01 28:32:03
  TRACK 10 AUDIO
TITLE "Гулял я как-то с Шурою..."
PERFORMER "Александр Шеваловский"
    INDEX 01 31:32:26
  TRACK 11 AUDIO
TITLE "В милом городе Одесса..."
PERFORMER "Александр Шеваловский"
    INDEX 01 35:59:66
  TRACK 12 AUDIO
TITLE "Зачем шептала ты слова любви..."
PERFORMER "Александр Шеваловский"
    INDEX 01 40:43:24

0

8

Вы не повыерите я долго ждал чтоб кто нибудь там в теме ответил честно.
димуля для начала ответь ты как админ муз. гр. Эта запись Бориса достойна внимания ???
и по кач выскажи чётко. Можноли из говна конф. сделать ....

http://savepic.ru/11866344.jpg

Вот эта запись Игоря с трекера запись которую он покупал. и честно всё написал

http://savepic.ru/11888875.png

Вот это трек с этой записи ...

http://www84.zippyshare.com/v/mhtFW3X7/file.html

0

9

Столько вариантов... запутаться можно. Но в последнем списке нет трека (№10). Вот такого -
http://rusfolder.com/45370042

0

10

Здравствуйте парни . Ну тут долгий разговор . Почему нет этой песни У Бориса можно только догадываться .
я не стану утверждать .но мне кажется что её просто убрали .......
эту песню подписываю кто во что горазд. и Акселирация и  Нынче школьник курит, пьёт...
как правильно я не знаю ............. вот у маня два вар в мп3 смотрите сами если будет кому то инт. я залью
Сообщение для Sergio N90 Если будет возможность то выставите Ваш вар. этого конц.

http://savepic.ru/12115327.jpg

=Spoiler написал(а):

Исполнитель: Александр Шеваловский и анс.`Обертон`       
Альбом: 1-я встреча `Белочка`
Год выпуска: февраль.,1977г
Формат: MP3
Жанр: шансон
Качество звука: 320 Мгб
Количество композиций: 27
Размер: 187

01. Вступление   
02. Здравствуйте   
03. Белочка   
04. Я люблю царевну   
05. Мой стоит ларечек   
06. Лелю встретил   
07. С твоей маленькой, теплой ладони   
08. У Маруси кудри вьются   
09. Расскажу друзья про волшебницу   
10. Нынче школьник   
11. Муры-Шуры   
12. Давай станцуем рок-н-ролл   
13. Я бегу, я очень тороплюсь   
14. Много песен пропето вину   
15. Один приятель мой   
16. Ты случайная встреча   
17. Под кроной зеленой   
18. Безработные мальчики, безработные девочки   
19. Позвонили ко мне очень поздно ночью   
20. Говорят, что в Израиле   
21. Я палатку расхлестаю   
22. Болезнь пришла негаданно   
23. Нецеловану девчонку я на хату пригласил   
24. Я убил ее ранней весною   
25. Гулял я как-то с Шурою   
26. В милом городе Одесса   
27. Зачем шептала ты слова любви

..................................................................................
Александр Шеваловский с анс."Обертон". 1-й концерт. 1977.

01. Вступление
02. Шеваловский на эстраде
03. Белочка
04. Хочу жениться!
05. Удобства быта
06. Леля
07. Безответная любовь
08. Маруся
09. Про заветную любовь
10. Акселерация
11. Шуры, муры
12. Давай станцуем рок-н-ролл
13. Недотрога
14. О вине
15. Случайная встреча
16. Чужая жена
17. Банька
18. Безработные мальчики
19. Страховой полис
20. Ехать было заманчиво
21. Мечтатель
22. Болезнь
23. За любовь не штрафовал
24. Изменница
25. Шура
26. Молдаванка знает Раю
27. Сувенир

http://www.blat.dp.ua/shev/shevob1.htm

0

11

Ну и в заключении  смотрим вот сюда это люди слушать по мнению адина муз. гр вт слушать не могут
только избранные

http://savepic.ru/12060017.png

=Spoiler написал(а):

Александр Шеваловский - 1-ый концерт с анс. Обертон

Side A:

00:00 01. Здравствуйте и ради Бога...
02:42 02. Белочка в лесу одна жила...
05:24 03. Я люблю царевну...
07:17 04. Мой стоит ларёчек самый лучший...
12:11 05. Лёлю встретил, сделал ксиву...
17:28 06. С твоей маленькой тёплой ладони...
20:04 07. У Маруси кудри вьются...
21:39 08. Расскажу, друзья, про волшебницу...
25:01 09. Нынче школьник курит, пьёт...
27:28 10. Муры-шуры мы у Муры...
30:08 11. Давай станцуем рок'н'ролл...
32:45 12. Я бегу, я очень тороплюсь...
36:45 13. Много песен пропето вину...
38:40 14. Один приятель мой...

Side B:

00:00 01. Ты - случайная встреча... (Обертон)
03:01:30 02. Под кроной зелёной на маленькой даче...
05:42 03. Безработные мальчики, безработные девочки...
09:43 04. Позвонили ко мне очень поздно ночью...
13:24 05. Говорят, что в Израиле...
17:28 06. Я палатку расхлестаю...
21:24 07. Болезнь пришла негаданно...
23:30 08. Нецелованну девчонку я на хату пригласил...
25:55 09. Я убил её ранней весною...
29:43 10. Гулял я как-то с Шурою...
33:55 11. В милом городе Одесса...
38:24 12. Зачем шептала ты слова любви...

0


Вы здесь » Tutnet-fufla » Отечественный шансон.Авторская песня » [16/44] Александр Шеваловский - Первая Встреча с анс. "Обертон" (1977)