Это интересно Скрыть

Tutnet-fufla

Информация о пользователе

Привет, Гость! Войдите или зарегистрируйтесь.


Вы здесь » Tutnet-fufla » RETRO, CLASSIC (MP3 .Lossless) » [24/96] Виктор Светлов - Магнитоальбом [Lossless]


[24/96] Виктор Светлов - Магнитоальбом [Lossless]

Сообщений 1 страница 3 из 3

1

Все благодарности Борису 63 с ВТ
где спившийся Админ. муз. группы банит и оскорбляет польз. Боря извини .но
удалять ничего не буду Пусть люди слушают муз .а не унижаются перед димулей
Видет бог я не хотел так поступать .но его поступки переходят всё дозволеное......
Спасибо ............... тебе

[24/96] Виктор Светлов - Магнитоальбом [Lossless]

Оцифровка с катушки из личной коллекции!
Борис 63

Треклист:

01. Дорогой длинною
02. Две гитары
03. Что-то грустно...
04. Цыганская песня
05. Не печалься, друг мой, не печалься
06. Нисколько мы не постарели
07. Я Вас люблю!
08. Твои глаза зеленые (Так хочется хоть раз, в последний раз поверить)
09. Зачем я влюбился в тебя дорогая?
10. Всегда и везде за тобою
11. Пара гнедых

Код:
REM GENRE "Романс"
REM COMMENT "Оцифровка - Борис 63"
TITLE "Магнитоальбом"
PERFORMER "Виктор Светлов"
FILE "Виктор Светлов (цыганские).flac" WAVE
  TRACK 01 AUDIO
TITLE "Дорогой длинною"
PERFORMER "Виктор Светлов"
    INDEX 01 00:01:63
  TRACK 02 AUDIO
TITLE "Две гитары"
PERFORMER "Виктор Светлов"
    INDEX 01 04:03:52
  TRACK 03 AUDIO
TITLE "Что-то грустно..."
PERFORMER "Виктор Светлов"
    INDEX 01 08:45:56
  TRACK 04 AUDIO
TITLE "Цыганская песня"
PERFORMER "Виктор Светлов"
    INDEX 01 14:10:21
  TRACK 05 AUDIO
TITLE "Не печалься, друг мой, не печалься"
PERFORMER "Виктор Светлов"
    INDEX 01 17:31:57
  TRACK 06 AUDIO
TITLE "Нисколько мы не постарели"
PERFORMER "Виктор Светлов"
    INDEX 01 22:07:11
  TRACK 07 AUDIO
TITLE "Я Вас люблю!"
PERFORMER "Виктор Светлов"
    INDEX 01 26:41:61
  TRACK 08 AUDIO
TITLE "Твои глаза зеленые (Так хочется хоть раз, в последний раз поверить)"
PERFORMER "Виктор Светлов"
    INDEX 01 30:42:40
  TRACK 09 AUDIO
TITLE "Зачем я влюбился в тебя дорогая"
PERFORMER "Виктор Светлов"
    INDEX 01 36:02:45
  TRACK 10 AUDIO
TITLE "Всегда и везде за тобою"
PERFORMER "Виктор Светлов"
    INDEX 01 39:51:07
  TRACK 11 AUDIO
TITLE "Пара гнедых"
PERFORMER "Виктор Светлов"
    INDEX 01 44:18:40

FLAC (непорезанный на треки):
https://disk.yandex.ru/public/?hash=DrYkT+qWZzscBm2L0elH5VtHO4dL3hK2/3+K+xrahHI=

0

2

Данную. ссылку любезно предоставил с вт Евгений80 
Супер-модератор.

FLAC+CUE: 
https://disk.yandex.ru/public/?hash=uXxDRFjRwLyu76hpF+fBOCI18KpmmG4VXelq78KTKcE=

0

3

http://s1.uploads.ru/nU2z1.jpg

Виктор Светлов
Цыганские шлягеры разных лет
Мр-3 320 кб/с
84,7 мб

01 Вино в моем бокале
02 Журавли
03 Ветер
04 Прощай, мой табор
05 Палсо
06 Соколовский хор
07 Ямщик, не гони лошадей
08 Ручеек
09 Черноглазая любовь
10 Поздняя отрада
11 Если в сердце ноет рана

https://yadi.sk/d/nj1VZh9r3PAdrP

0


Вы здесь » Tutnet-fufla » RETRO, CLASSIC (MP3 .Lossless) » [24/96] Виктор Светлов - Магнитоальбом [Lossless]