Tutnet-fufla

Объявление

Введите здесь ваше объявление.

Информация о пользователе

Привет, Гость! Войдите или зарегистрируйтесь.


Вы здесь » Tutnet-fufla » Оцифровки ВИНИЛА » (24/96) Пётр Лещенко (lossless)


(24/96) Пётр Лещенко (lossless)

Сообщений 1 страница 2 из 2

1

Оцифровка - Борис 63 ..... Скачав не забудьте написать пару слов благодарности
Боря от себя так добавлю Видит бог я не хотел так поступать и никогда не брал твои оц.
но беспредел и хамство двух господ с вт переходят все рамки
Люди не должны выслушивать оскорбления в свой адрес
и унижаться чтоб послушать муз.


(24/96) Пётр Лещенко 1 (lossless)

Оцифровка с винила

CUE:

Код:
REM GENRE "Ретро"
REM DATE 1930-х (запись 1989 г.)
REM COMMENT "Оцифровка - Борис 63"
TITLE "Поёт Петр Лещенко"
PERFORMER "Петр Лещенко"
FILE "1.flac" WAVE
  TRACK 01 AUDIO
TITLE "Вернулась снова ты"
PERFORMER "Петр Лещенко"
    INDEX 01 00:04:53
  TRACK 02 AUDIO
TITLE "Марфуша"
PERFORMER "Петр Лещенко"
    INDEX 01 03:23:40
  TRACK 03 AUDIO
TITLE "Не уходи"
PERFORMER "Петр Лещенко"
    INDEX 01 06:31:53
  TRACK 04 AUDIO
TITLE "Петрушка"
PERFORMER "Петр Лещенко"
    INDEX 01 09:46:02
  TRACK 05 AUDIO
TITLE "Голубые глаза"
PERFORMER "Петр Лещенко"
    INDEX 01 13:01:30
  TRACK 06 AUDIO
TITLE "Когда зажгутся фонари"
PERFORMER "Петр Лещенко"
    INDEX 01 16:06:13
  TRACK 07 AUDIO
TITLE "Спи, моё бедное сердце"
PERFORMER "Петр Лещенко"
    INDEX 01 19:15:58
FILE "2.flac" WAVE
  TRACK 08 AUDIO
TITLE "Девонька"
PERFORMER "Петр Лещенко"
    INDEX 01 00:04:22
  TRACK 09 AUDIO
TITLE "Моя Марусечка"
PERFORMER "Петр Лещенко"
    INDEX 01 03:37:12
  TRACK 10 AUDIO
TITLE "Татьяна"
PERFORMER "Петр Лещенко"
    INDEX 01 06:08:40
  TRACK 11 AUDIO
TITLE "И льётся песня"
PERFORMER "Петр Лещенко"
    INDEX 01 09:22:13
  TRACK 12 AUDIO
TITLE "Моё последнее танго"
PERFORMER "Петр Лещенко"
    INDEX 01 12:34:08
  TRACK 13 AUDIO
TITLE "В цирке"
PERFORMER "Петр Лещенко"
    INDEX 01 15:49:32
  TRACK 14 AUDIO
TITLE "Старинный вальс"
PERFORMER "Петр Лещенко"
    INDEX 01 19:28:10
       
ссылка

https://disk.yandex.ru/public/?hash=FYT/gW+LRi89egoEbz9KzqTDJP53PjNmgfQPjUXbMSs=
__________________

(24/96) Пётр Лещенко 2 (Lossless)

оцифровка с винила

CUE

Код:
REM GENRE "Ретро"
REM DATE 1930 (выпуск 1989)
REM COMMENT "Оцифровка - Борис 63"
TITLE "Поёт Пётр Лещенко-2"
PERFORMER "Петр Лещенко"
FILE "1.flac" WAVE
  TRACK 01 AUDIO
TITLE "Признавайся мне"
PERFORMER "Петр Лещенко"
    INDEX 01 00:00:00
  TRACK 02 AUDIO
TITLE "Ванька, спой"
PERFORMER "Петр Лещенко"
    INDEX 01 03:26:22
  TRACK 03 AUDIO
TITLE "Черные глаза"
PERFORMER "Петр Лещенко"
    INDEX 01 06:19:18
  TRACK 04 AUDIO
TITLE "Катя"
PERFORMER "Петр Лещенко"
    INDEX 01 09:36:16
  TRACK 05 AUDIO
TITLE "Увяли грёзы"
PERFORMER "Петр Лещенко"
    INDEX 01 12:13:63
  TRACK 06 AUDIO
TITLE "Настя-ягодка"
PERFORMER "Петр Лещенко"
    INDEX 01 15:10:32
  TRACK 07 AUDIO
TITLE "Лошадки"
PERFORMER "Петр Лещенко"
    INDEX 01 18:09:60
FILE "2.flac" WAVE
  TRACK 08 AUDIO
TITLE "За гитарный перебор"
PERFORMER "Петр Лещенко"
    INDEX 01 00:03:58
  TRACK 09 AUDIO
TITLE "Два сердца"
PERFORMER "Петр Лещенко"
    INDEX 01 03:25:59
  TRACK 10 AUDIO
TITLE "Не плачь ты, мой бэби"
PERFORMER "Петр Лещенко"
    INDEX 01 06:31:66
  TRACK 11 AUDIO
TITLE "Студенточка"
PERFORMER "Петр Лещенко"
    INDEX 01 09:46:74
  TRACK 12 AUDIO
TITLE "Чубчик"
PERFORMER "Петр Лещенко"
    INDEX 01 12:59:63
  TRACK 13 AUDIO
TITLE "Мусенька родная"
PERFORMER "Петр Лещенко"
    INDEX 01 16:01:51
  TRACK 14 AUDIO
TITLE "Играй, цыган"
PERFORMER "Петр Лещенко"
    INDEX 01 19:26:71
       
ссылка

https://disk.yandex.ru/public/?hash=/TQ/RD9iKyP5ojpRJ9U3p3W7r7AymF2HyX01Vx6Kbsk=

0

2

0


Вы здесь » Tutnet-fufla » Оцифровки ВИНИЛА » (24/96) Пётр Лещенко (lossless)