Tutnet-fufla

Объявление

Введите здесь ваше объявление.

Информация о пользователе

Привет, Гость! Войдите или зарегистрируйтесь.


Вы здесь » Tutnet-fufla » Аркадий Северный Записи и концерты » Аркадий Северный и анс. "Братья Жемчужные" - Проститутка Буреломова


Аркадий Северный и анс. "Братья Жемчужные" - Проститутка Буреломова

Сообщений 1 страница 2 из 2

1

Здравствуйте Господа. Данные записи не украдены.
а приватизированы у спившигося шизофреника с вт
дмитрия который наз.
себя Админ. муз. группы.....(этот дебил срезы ищет на записи) Никогда он не был Админ. ВТ
Это самозванец который банит и оскорбляет пользователей .
провацируя из на оскорбления.

Говнотёрки неустраиываем тяните и наслаждайтесь Все благодарности
Андрею Шалягину и Борис 63
Спасибо парни   

[24/96] Аркадий Северный и анс. "Братья Жемчужные" - Проститутка Буреломова (1976)

Оцифровка с катушки Андрея Шалягина

Код:
REM GENRE "Shanson"
REM DATE 1976
REM COMMENT "Оцифровка - Борис 63"
TITLE "Проститутка Буреломова"
PERFORMER "Аркадий Северный и бр. Жемчужные"
FILE "Аркадий Северный - Проститутка Буреломова 1 ст.flac" WAVE
  TRACK 01 AUDIO
TITLE "Вступление"
PERFORMER "Аркадий Северный и бр. Жемчужные"
    INDEX 01 00:01:66
  TRACK 02 AUDIO
TITLE "Осенний вечер в коже хромовой..."
PERFORMER "Аркадий Северный и бр. Жемчужные"
    INDEX 01 00:47:32
  TRACK 03 AUDIO
TITLE "Я споткнулся вчера на улице..."
PERFORMER "Аркадий Северный и бр. Жемчужные"
    INDEX 01 06:27:34
  TRACK 04 AUDIO
TITLE "Журавли улетели, журавли улетели..."
PERFORMER "Аркадий Северный и бр. Жемчужные"
    INDEX 01 09:30:62
  TRACK 05 AUDIO
TITLE "За твой приезд сюда ко мне..."
PERFORMER "Аркадий Северный и бр. Жемчужные"
    INDEX 01 15:21:16
  TRACK 06 AUDIO
TITLE "А у неё все своё - и бельё, и жильё..."
PERFORMER "Аркадий Северный и бр. Жемчужные"
    INDEX 01 19:43:19
  TRACK 07 AUDIO
TITLE "Призрачно все в этом мире бушующем..."
PERFORMER "Аркадий Северный и бр. Жемчужные"
    INDEX 01 24:04:57
  TRACK 08 AUDIO
TITLE "Софка прыгает и скачет раннею весной..."
PERFORMER "Аркадий Северный и бр. Жемчужные"
    INDEX 01 29:43:65
  TRACK 09 AUDIO
TITLE "Ваша светлость - тюрьма"
PERFORMER "Аркадий Северный и бр. Жемчужные"
    INDEX 01 34:27:72
  TRACK 10 AUDIO
TITLE "Раздевайся потихоньку, не спеши..."
PERFORMER "Аркадий Северный и бр. Жемчужные"
    INDEX 01 38:53:29
FILE "Аркадий Северный - Проститутка Буреломова 2 ст.flac" WAVE
  TRACK 11 AUDIO
TITLE "Целует осень на прощание..."
PERFORMER "Аркадий Северный и бр. Жемчужные"
    INDEX 01 00:01:51
  TRACK 12 AUDIO
TITLE "Ты бродишь под мутным небом..."
PERFORMER "Аркадий Северный и бр. Жемчужные"
    INDEX 01 02:58:57
  TRACK 13 AUDIO
TITLE "Вечер лишь только настанет..."
PERFORMER "Аркадий Северный и бр. Жемчужные"
    INDEX 01 06:28:57
  TRACK 14 AUDIO
TITLE "Огни притона заманчиво горели..."
PERFORMER "Аркадий Северный и бр. Жемчужные"
    INDEX 01 10:38:03
  TRACK 15 AUDIO
TITLE "На Колыме..."
PERFORMER "Аркадий Северный и бр. Жемчужные"
    INDEX 01 14:43:69
  TRACK 16 AUDIO
TITLE "Я тебе пишу, голубоглазая..."
PERFORMER "Аркадий Северный и бр. Жемчужные"
    INDEX 01 18:38:56
  TRACK 17 AUDIO
TITLE "На заливе лёд весною тает..."
PERFORMER "Аркадий Северный и бр. Жемчужные"
    INDEX 01 23:42:65
  TRACK 18 AUDIO
TITLE "Там далеко на Севере далёком..."
PERFORMER "Аркадий Северный и бр. Жемчужные"
    INDEX 01 27:22:66
  TRACK 19 AUDIO
TITLE "Ночь надвигается, фонарь качается..."
PERFORMER "Аркадий Северный и бр. Жемчужные"
    INDEX 01 33:51:54
  TRACK 20 AUDIO
TITLE "Из окон корочкой несет поджаристой..."
PERFORMER "Аркадий Северный и бр. Жемчужные"
    INDEX 01 37:36:00
  TRACK 21 AUDIO
TITLE "Заглянуть в глаза и сказать..."
PERFORMER "Аркадий Северный и бр. Жемчужные"
    INDEX 01 41:08:15
   

Ссылка на обе стороны катушки FLAC+*.CUE:

Скрытый текст:

Для просмотра скрытого текста - войдите или зарегистрируйтесь.

__________________

0

2

http://sg.uploads.ru/TEsRB.jpg

0


Вы здесь » Tutnet-fufla » Аркадий Северный Записи и концерты » Аркадий Северный и анс. "Братья Жемчужные" - Проститутка Буреломова