Tutnet-fufla

Объявление

Введите здесь ваше объявление.

Информация о пользователе

Привет, Гость! Войдите или зарегистрируйтесь.


Вы здесь » Tutnet-fufla » Зарубежная музыка .Отечественная Поп музыка ( » Андрей Макаревич - Песни под гитару (запись 1989) Lossless


Андрей Макаревич - Песни под гитару (запись 1989) Lossless

Сообщений 1 страница 4 из 4

1

Все благодарности Борису 63 с ВТ где спившийся Админ. муз. группы банит и оскорбляет польз. Боря извини .но удалять ничего не буду Пусть люди слушают муз .а не унижаются перед димулей Видет бог я не хотел так поступать .но его поступки переходят всё дозволеное...... Спасибо ............... тебе

[24/96] Андрей Макаревич - Песни под гитару (запись 1989) Lossless

CUE:

Код:
REM GENRE "Авторская песня"
REM DATE 1989
REM COMMENT "Оцифровка - Борис 63"
TITLE "Песни под гитару"
PERFORMER "Андрей Макаревич"
FILE "1.flac" WAVE
  TRACK 01 AUDIO
TITLE "Я снова жду..."
PERFORMER "Андрей Макаревич"
    INDEX 01 00:02:53
  TRACK 02 AUDIO
TITLE "Паузы"
PERFORMER "Андрей Макаревич"
    INDEX 01 02:24:51
  TRACK 03 AUDIO
TITLE "Нас ещё не согнули годы"
PERFORMER "Андрей Макаревич"
    INDEX 01 04:45:47
  TRACK 04 AUDIO
TITLE "Памяти Галича"
PERFORMER "Андрей Макаревич"
    INDEX 01 07:10:60
  TRACK 05 AUDIO
TITLE "Три сестры"
PERFORMER "Андрей Макаревич"
    INDEX 01 09:45:05
  TRACK 06 AUDIO
TITLE "Песня перемен"
PERFORMER "Андрей Макаревич"
    INDEX 01 12:12:65
  TRACK 07 AUDIO
TITLE "Посвящение артистам"
PERFORMER "Андрей Макаревич"
    INDEX 01 14:02:44
  TRACK 08 AUDIO
TITLE "Уходяее лето"
PERFORMER "Андрей Макаревич"
    INDEX 01 16:19:37
  TRACK 09 AUDIO
TITLE "Маленькие герои"
PERFORMER "Андрей Макаревич"
    INDEX 01 18:00:72
FILE "2.flac" WAVE
  TRACK 10 AUDIO
TITLE "Варьете"
PERFORMER "Андрей Макаревич"
    INDEX 01 00:07:16
  TRACK 11 AUDIO
TITLE "Здорово, Миша!"
PERFORMER "Андрей Макаревич"
    INDEX 01 03:24:35
  TRACK 12 AUDIO
TITLE "Я хотел бы пройти сто дорог"
PERFORMER "Андрей Макаревич"
    INDEX 01 06:21:59
  TRACK 13 AUDIO
TITLE "Посвящение корове"
PERFORMER "Андрей Макаревич"
    INDEX 01 08:14:19
  TRACK 14 AUDIO
TITLE "Песня про первых"
PERFORMER "Андрей Макаревич"
    INDEX 01 09:50:29
  TRACK 15 AUDIO
TITLE "Ах, какой был изысканный бал"
PERFORMER "Андрей Макаревич"
    INDEX 01 11:33:60
  TRACK 16 AUDIO
TITLE "Мой приятель - художник"
PERFORMER "Андрей Макаревич"
    INDEX 01 13:47:08
  TRACK 17 AUDIO
TITLE "Памяти Высоцкого"
PERFORMER "Андрей Макаревич"
    INDEX 01 16:43:30
  TRACK 18 AUDIO
TITLE "Слишком короток век"
PERFORMER "Андрей Макаревич"
    INDEX 01 18:57:08
       

   
1 сторона

https://disk.yandex.ru/public/?hash=IDoad65YCwq7wvApOowI3m70rBQ+FfgWRaJhBOxQrF4=

2 сторона

https://disk.yandex.ru/public/?hash=Mp7kX+R4WAWWZeCwo2blambAnKIIUKfcbPcxxONx2ds=

0

2

Саш - одно сообщение напишу!

Музыка (которую я оцифровываю) предназначена для всех пользователей интернета!

Все мои записи доступны людям!

0

3

Борис 63 написал(а):

Борис 63


Боря Здравствуй............. Нет ты не пиши ничего до тех пор пока не поймёшь ...
Кто торгует твоими реал. кто бабло на них зарабатывает ... И не нужно из меня мудака делать.
И я и парни всегда с Уважением относились  к тебе.......
В рот мент мен.... еб...ь ты что крести от червей не отличаешь..... ????
Сука дима ...........................

0

4

Боря ты спрорси у димы он приедит к тебе в гости вместе со мной ...............
и мне позвони.......

0


Вы здесь » Tutnet-fufla » Зарубежная музыка .Отечественная Поп музыка ( » Андрей Макаревич - Песни под гитару (запись 1989) Lossless