Tutnet-fufla

Объявление

Введите здесь ваше объявление.

Информация о пользователе

Привет, Гость! Войдите или зарегистрируйтесь.


Вы здесь » Tutnet-fufla » Шансон в форм. lossless » Ботва - Овца по жизни (1994) Lossless


Ботва - Овца по жизни (1994) Lossless

Сообщений 1 страница 2 из 2

1

Здравствуйте Господа. Данные записи не украдены.
а приватизированы у спившигося шизофреника с вт
дмитрия который наз.
себя Админ. муз. группы..... Никогда он не был Админ. ВТ
Это самозванец который банит и оскорбляет пользователей .
провацируя их на оскорбления.

Ботва - Овца по жизни (1994) Lossless

http://i62.fastpic.ru/big/2014/0518/2d/a31950ee323f2924cf60c01c8718aa2d.jpg

Ботва - Овца по жизни (1994)
Жанр: шансон
Год выпуска диска: 1994
Производитель диска: (с)&(p) "ПН-Студия"
Аудио кодек: FLAC
Тип рипа: image+.cue+log+cover
Битрейт аудио: lossless
Продолжительность: 41:16
Рип: Грех

Треклист:
01. Бабка
02. "ПТ"
03. Ответ Вилли Токареву
04. Три рубля
05. Зараза
06. Беременная
07. Бам-бом
08. Угасшая любовь
09. Едем - едем
10. Воры
11. Хорошо
12. На киче ночь
13. Черная шляпа
14. Машенька
15. Чува
16. Овца я буду
17. Фонтаны
18. Овечий вальс
     
Скачать:

http://yadi.sk/d/Cxt11h9fQXFq9

0

2

http://s9.uploads.ru/N0rgi.gif

Exact Audio Copy V0.99 prebeta 4 from 23. January 2008

EAC extraction logfile from 22. March 2012, 8:54

гр.БОТВА / ОВЦА ПО ЖИЗНИ

Used drive  : ASUS    DRW-2014L1   Adapter: 0  ID: 0

Read mode               : Secure
Utilize accurate stream : Yes
Defeat audio cache      : Yes
Make use of C2 pointers : No

Read offset correction                      : 6
Overread into Lead-In and Lead-Out          : No
Fill up missing offset samples with silence : Yes
Delete leading and trailing silent blocks   : No
Null samples used in CRC calculations       : Yes
Used interface                              : Installed external ASPI interface

Used output format              : User Defined Encoder
Selected bitrate                : 128 kBit/s
Quality                         : High
Add ID3 tag                     : No
Command line compressor         : C:\Program Files\Exact Audio Copy\Flac\flac.exe
Additional command line options : -T "DATE=%y" -T "GENRE=%m" -8 -V %s

TOC of the extracted CD

     Track |   Start  |  Length  | Start sector | End sector
    ---------------------------------------------------------
        1  |  0:00.00 |  0:36.55 |         0    |     2754   
        2  |  0:36.55 |  2:13.67 |      2755    |    12796   
        3  |  2:50.47 |  3:51.50 |     12797    |    30171   
        4  |  6:42.22 |  0:32.00 |     30172    |    32571   
        5  |  7:14.22 |  3:29.30 |     32572    |    48276   
        6  | 10:43.52 |  3:27.65 |     48277    |    63866   
        7  | 14:11.42 |  0:21.10 |     63867    |    65451   
        8  | 14:32.52 |  4:43.33 |     65452    |    86709   
        9  | 19:16.10 |  0:27.52 |     86710    |    88786   
       10  | 19:43.62 |  3:16.43 |     88787    |   103529   
       11  | 23:00.30 |  5:16.12 |    103530    |   127241   
       12  | 28:16.42 |  0:25.35 |    127242    |   129151   
       13  | 28:42.02 |  3:13.15 |    129152    |   143641   
       14  | 31:55.17 |  0:34.03 |    143642    |   146194   
       15  | 32:29.20 |  2:51.12 |    146195    |   159031   
       16  | 35:20.32 |  0:24.38 |    159032    |   160869   
       17  | 35:44.70 |  3:19.67 |    160870    |   175861   
       18  | 39:04.62 |  2:12.03 |    175862    |   185764   

Range status and errors

Selected range

     Filename C:\Users\ГРЕХОВСКИЙ\Desktop\гр.БОТВА\ОВЦА ПО ЖИЗНИ.wav

     Peak level 100.0 %
     Range quality 99.9 %
     Test CRC CB433400
     Copy CRC CB433400
     Copy OK

No errors occurred

AccurateRip summary

Track  1  cannot be verified as accurate (confidence 1)  [796C9097], AccurateRip returned [F268AAB3]
Track  2  cannot be verified as accurate (confidence 1)  [9CB8D60C], AccurateRip returned [534412EB]
Track  3  cannot be verified as accurate (confidence 1)  [558FD72B], AccurateRip returned [F60C8CF1]
Track  4  cannot be verified as accurate (confidence 1)  [2E0B5B35], AccurateRip returned [915D3CBB]
Track  5  cannot be verified as accurate (confidence 1)  [7EDF494F], AccurateRip returned [7D9FF65D]
Track  6  cannot be verified as accurate (confidence 1)  [746D8377], AccurateRip returned [9B2DD9C3]
Track  7  cannot be verified as accurate (confidence 1)  [BB2E4BF9], AccurateRip returned [B62B6610]
Track  8  cannot be verified as accurate (confidence 1)  [9DC85CEC], AccurateRip returned [35A7073B]
Track  9  cannot be verified as accurate (confidence 1)  [56B9B15E], AccurateRip returned [3984697B]
Track 10  cannot be verified as accurate (confidence 1)  [1CB634B7], AccurateRip returned [B4EDC4C4]
Track 11  cannot be verified as accurate (confidence 1)  [02984063], AccurateRip returned [A09F3DB5]
Track 12  cannot be verified as accurate (confidence 1)  [098D6600], AccurateRip returned [10FCC7DD]
Track 13  cannot be verified as accurate (confidence 1)  [14004D79], AccurateRip returned [360C1C53]
Track 14  cannot be verified as accurate (confidence 1)  [2912B79F], AccurateRip returned [EE8A568E]
Track 15  cannot be verified as accurate (confidence 1)  [355523C4], AccurateRip returned [0C19FF51]
Track 16  cannot be verified as accurate (confidence 1)  [B51AB756], AccurateRip returned [C316C2E7]
Track 17  cannot be verified as accurate (confidence 1)  [7A2D0F4E], AccurateRip returned [84F31ED3]
Track 18  cannot be verified as accurate (confidence 1)  [AAB69804], AccurateRip returned [920BE48E]

No tracks could be verified as accurate
You may have a different pressing from the one(s) in the database

End of status report

0


Вы здесь » Tutnet-fufla » Шансон в форм. lossless » Ботва - Овца по жизни (1994) Lossless