Это интересно Скрыть

Tutnet-fufla

Объявление

Информация о пользователе

Привет, Гость! Войдите или зарегистрируйтесь.


Вы здесь » Tutnet-fufla » Оцифровки ВИНИЛА » [24/96] Вика Цыганова - Гуляй, Анархия (1991) Lossless


[24/96] Вика Цыганова - Гуляй, Анархия (1991) Lossless

Сообщений 1 страница 2 из 2

1

Доброго время суток господа и дамы. Данные записи .альбомы не украдены .
а приватизированы у спившигося негодяя с вт который наз. себя Админ. муз. группы который
провацирует и оскорбляет пользователей выводя их
на оскорбления в адрес друг друга .. Это не оговор ... Это правда
Спасибо тому чел. кто счёл нужным поделиться и выставил в сеть Кто сидел и цифр. запись
чтоб люди могли послушать любимую муз.

Все благодарности Борис 63
Спасибо Боря... я выскажу своё мнение Просл. щелчки даже в мп3
наверно этим и инт. оц. с пластинки Это на любителя .
Боря так для размышления тебе .а не в укор. Воровство то наказуемо и
призираемо - когда с него выгоду имеют 

[audio]http://ato.su/musicbox/i/0514/aa/e45a3c.mp3[/audio]

[24/96] Вика Цыганова - Гуляй, Анархия (1991) Lossless

http://i63.fastpic.ru/big/2014/0520/74/9af90f80dbee2fde7fc1e65680d41674.jpg

Код:

REM GENRE "Shanson"
REM DATE 1991
REM COMMENT "Оцифровка - Борис 63"
TITLE "Гуляй, Анархия!"
PERFORMER "Вика Цыганова"
FILE "Цыганова-1.flac" WAVE
  TRACK 01 AUDIO
TITLE "Гуляй, Анархия!"
PERFORMER "Вика Цыганова"
    INDEX 01 00:02:71
  TRACK 02 AUDIO
TITLE "Дело было на Арбате"
PERFORMER "Вика Цыганова"
    INDEX 01 03:16:26
  TRACK 03 AUDIO
TITLE "Лёнька Пантелеев"
PERFORMER "Вика Цыганова"
    INDEX 01 07:06:69
  TRACK 04 AUDIO
TITLE "Париж - Нью-Йорк"
PERFORMER "Вика Цыганова"
    INDEX 01 10:24:60
FILE "Цыганова-2.flac" WAVE
  TRACK 01 AUDIO
TITLE "Абрам Абрамыч"
PERFORMER "Вика Цыганова"
    INDEX 01 00:02:68
  TRACK 02 AUDIO
TITLE "Эх, Серёжа!"
PERFORMER "Вика Цыганова"
    INDEX 01 03:14:63
  TRACK 03 AUDIO
TITLE "Не плачь, Душа!"
PERFORMER "Вика Цыганова"
    INDEX 01 07:26:17
  TRACK 04 AUDIO
TITLE "Андреевский флаг"
PERFORMER "Вика Цыганова"
    INDEX 01 10:44:68
       

http://i62.fastpic.ru/big/2014/0520/3f/0af209e72f0ed8c334fd0c203cd0e23f.jpg

FLAC+CUE:

http://yadi.sk/d/qjsYhPbZJr6sK

http://i61.fastpic.ru/thumb/2014/0520/32/dd7a91c6bd56801d2eb7c5b695788a32.jpeg

mp3--320 kbps:

http://yadi.sk/d/7tLKAqILJr6F7
__________________

Аватар для Дмитрий

http://i62.fastpic.ru/big/2014/0520/1e/20bd0dbb6f4fbc980193d9fd4b607a1e.png

Регистрация: 12.12.2008
Адрес: CCCP
Сообщений: 45,591

Пластинка по содержанию замечательная!
Добавил ещё одну оцифровку

Источник оцифровки: NoOneIsThere
Код класса состояния винила: NM
Устройство воспроизведения: Technics SL-1500 + Shure M24H + Type IV
Фонокорректор: 2-x блочный, гибридный (6Н2П-ЕВ + Mullard E88CC)
АЦП: SB E-MU 0404 USB
Программа-оцифровщик: MAGIX Samplitude 10
Обработка: Убрана пара щелчков в Аудишине и сокращены паузы

http://yadi.sk/d/F1zMImn8QmdvL
__________________

0

2

Тяните парни и наслаждайтесь.

0


Вы здесь » Tutnet-fufla » Оцифровки ВИНИЛА » [24/96] Вика Цыганова - Гуляй, Анархия (1991) Lossless