Это интересно Скрыть

Tutnet-fufla

Информация о пользователе

Привет, Гость! Войдите или зарегистрируйтесь.


Вы здесь » Tutnet-fufla » Отечественный шансон.Авторская песня » [24/96] Вилли Токарев - В шумном балагане [Lossless]


[24/96] Вилли Токарев - В шумном балагане [Lossless]

Сообщений 1 страница 3 из 3

1

Все благодарности
Игорю и Борис63  Спасибо Вам

http://i64.fastpic.ru/big/2014/0524/94/a6ed58b767d5feb1680f6f462ee5ab94.jpg

http://i63.fastpic.ru/thumb/2014/0524/36/09d208339425d1aa26c6a04cdc8e1436.jpeg

[24/96] Вилли Токарев - В шумном балагане [Lossless]

Код:
REM GENRE "Shanson"
REM COMMENT "Оцифровка - Борис 63"
TITLE "В шумном балагане"
PERFORMER "Вилли Токарев"
FILE "В.ТОКАРЕВ -В шумном балагане-(1).flac" WAVE
  TRACK 01 AUDIO
TITLE "В шумном балагане"
PERFORMER "Вилли Токарев"
    INDEX 01 00:11:48
  TRACK 02 AUDIO
TITLE "Песня тракториста"
PERFORMER "Вилли Токарев"
    INDEX 01 02:49:37
  TRACK 03 AUDIO
TITLE "Люська хулиганка"
PERFORMER "Вилли Токарев"
    INDEX 01 06:47:41
  TRACK 04 AUDIO
TITLE "Держи вора"
PERFORMER "Вилли Токарев"
    INDEX 01 09:13:05
  TRACK 05 AUDIO
TITLE "Ростовский урка"
PERFORMER "Вилли Токарев"
    INDEX 01 11:54:73
  TRACK 06 AUDIO
TITLE "Воры-гуманисты"
PERFORMER "Вилли Токарев"
    INDEX 01 15:18:44
  TRACK 07 AUDIO
TITLE "Зойка налётчица"
PERFORMER "Вилли Токарев"
    INDEX 01 17:21:45
  TRACK 08 AUDIO
TITLE "Бродяга"
PERFORMER "Вилли Токарев"
    INDEX 01 20:30:23
FILE "В.ТОКАРЕВ -В шумном балагане-(2).flac" WAVE
  TRACK 09 AUDIO
TITLE "Чубчик кучерявый"
PERFORMER "Вилли Токарев"
    INDEX 01 00:03:32
  TRACK 10 AUDIO
TITLE "Политика"
PERFORMER "Вилли Токарев"
    INDEX 01 03:23:43
  TRACK 11 AUDIO
TITLE "Я мальчишка седой"
PERFORMER "Вилли Токарев"
    INDEX 01 06:30:60
  TRACK 12 AUDIO
TITLE "В бегах"
PERFORMER "Вилли Токарев"
    INDEX 01 09:58:20
  TRACK 13 AUDIO
TITLE "Ты прости, Господь!"
PERFORMER "Вилли Токарев"
    INDEX 01 13:25:67
  TRACK 14 AUDIO
TITLE "На Дерибасовской"
PERFORMER "Вилли Токарев"
    INDEX 01 18:15:20

Оцифровка с винила!
Пластинка предоставлена для оцифровки - Игорем
Ник на вт - i687 - за что ему - Большое спасибо!!!

http://f16.ifotki.info/thumb/f8c41e969ab6d1c770dfe4136aecb90b5f1b95183613019.jpg

http://f16.ifotki.info/org/9069261d27bde10328a177f5d74bef285f1b95183613048.jpg

   

FLAC (без разметки):

1 сторона

http://yadi.sk/d/TlRQUZ9rJC9jN

2 сторона

http://yadi.sk/d/QF6j9FAOJCAHF

FLAC + CUE:

http://yadi.sk/d/QNHkXax0JDXx8

mp3---320 kbps:

http://yadi.sk/d/WRVhrMTuJDY29

0

2

Здравствуйте парни а вот эта запись приватизирована
у спившигося негодяя с вт димули сруля Рассказывать про него ну нет желания
Это опустившийся моральный уёбок.. Который провацирует и оскорбляет польз.
Называя себя Админ. муз. груп. Все благодарности за альбом bazar
Спасибо Вам ........... Люди не должны простить этого негодяя муз. послушать

[24/192] Вилли Токарев - В Шумном Балагане (USA) (1981) Lossless

Жанр: Шансон, Авторская и Военная песня
Носитель: LP
Год выпуска: 1981
Лейбл: Dee Cee Gee
Страна-производитель: USA
Аудио кодек: FLAC
Тип рипа: image+.cue
Формат записи: 32/192
Формат раздачи: 24/192
Продолжительность: 30:28

Треклист:

01 Ньюйоркский Таксист 4:07
02 В Шумном Балагане 2:37
03 Песня Тракториста 3:55
04 Люська-хулиганка 2:23
05 Держи вора 2:41
06 Небоскребы, Небоскребы 3:17
07 Ростовский Урка 3:21
08 Воры-гуманисты 2:01
09 Придурок Ненормальный 3:01
10 Зойка-налётчица 3:05

Источник оцифровки: bazar
Устройство воспроизведения: $echnics SL-1200MK5
Предварительный усилитель: встроенный
АЦП: LynxTwo
Программа-оцифровщик: SF10
Обработка: не использовалась

Размер: 2,06 ГБ     

http://yadi.sk/d/2n2IsF-KLWEM9
http://yadi.sk/d/q6OIJJgPLWFNK

0

3

http://savepic.ru/12149269.png
http://savepic.ru/12155413.png

0


Вы здесь » Tutnet-fufla » Отечественный шансон.Авторская песня » [24/96] Вилли Токарев - В шумном балагане [Lossless]