Доброго время суток господа и дамы. Данные записи .альбомы не украдены .
а приватизированы у спившигося негодяя с вт который наз. себя Админ. муз. группы который
провацирует и оскорбляет пользователей выводя их
на оскорбления в адрес друг друга .. Это не оговор ... Это правда
Спасибо тому чел. кто счёл нужным поделиться и выставил в сеть Кто сидел и цифр. запись
чтоб люди могли послушать любимую муз.


Все благодареости Борис 63
Спасибо Боря..................

[24/96] Александр Новиков - Городской роман (1992) Lossless
.
http://i62.fastpic.ru/big/2014/0531/39/ee733844d2e040a1acf51e452055a139.jpg

Код:
REM GENRE "Shanson"
REM DATE 1992
REM COMMENT "Оцифровка - Борис 63"
TITLE "Городской Романс"
PERFORMER "Александр Новиков"
FILE "А.НОВИКОВ -Городской роман-(1).flac" WAVE
  TRACK 01 AUDIO
TITLE "Во дворе..."
PERFORMER "Александр Новиков"
    INDEX 01 00:10:72
  TRACK 02 AUDIO
TITLE "На прощанье"
PERFORMER "Александр Новиков"
    INDEX 01 06:45:42
  TRACK 03 AUDIO
TITLE "Шлюха"
PERFORMER "Александр Новиков"
    INDEX 01 11:06:32
  TRACK 04 AUDIO
TITLE "Катилась по асфальту..."
PERFORMER "Александр Новиков"
    INDEX 01 15:13:55
FILE "А.НОВИКОВ -Городской роман-(2).flac" WAVE
  TRACK 05 AUDIO
TITLE "Айседора"
PERFORMER "Александр Новиков"
    INDEX 01 00:03:05
  TRACK 06 AUDIO
TITLE "Троица"
PERFORMER "Александр Новиков"
    INDEX 01 04:50:62
  TRACK 07 AUDIO
TITLE "Рояль"
PERFORMER "Александр Новиков"
    INDEX 01 08:44:00
  TRACK 08 AUDIO
TITLE "Пьяный"
PERFORMER "Александр Новиков"
    INDEX 01 12:59:13
  TRACK 09 AUDIO
TITLE "Кино, кино..."
PERFORMER "Александр Новиков"
    INDEX 01 16:40:74
   

FLAC + CUE (с разметкой по трекам):

http://yadi.sk/d/6nawiMB8Jh6MN