Tutnet-fufla

Объявление

Введите здесь ваше объявление.

Информация о пользователе

Привет, Гость! Войдите или зарегистрируйтесь.


Вы здесь » Tutnet-fufla » Отечественный шансон.Авторская песня » Владимир Шубарин - Мое открытие Италии (1990) ) Lossless


Владимир Шубарин - Мое открытие Италии (1990) ) Lossless

Сообщений 1 страница 3 из 3

1

Все благодарности Борис 63
Спасибо Боря и не спеши хар. мои поступки...

Владимир Шубарин - мое открытие Италии (1990) (магнитоальбом)
(24/96) Lossless

http://i62.fastpic.ru/thumb/2014/0604/ec/0b7ee53ad04c20f6fe9afbdb612136ec.jpeg

Оцифровка с катушки из личной коллекции

Код:
REM GENRE "Shanson"
REM DATE 1990
REM COMMENT "Оцифровка - Борис 63"
TITLE "Моё открытие Италии"
PERFORMER "Владимир Шубарин"
FILE "Владимир Шубарин - мое открытие Италии - .flac" WAVE
  TRACK 01 AUDIO
TITLE "Спагетти на ушах"
PERFORMER "Владимир Шубарин"
    INDEX 01 00:00:00
  TRACK 02 AUDIO
TITLE "Как дела?"
PERFORMER "Владимир Шубарин"
    INDEX 01 09:04:61
  TRACK 03 AUDIO
TITLE "Балаган"
PERFORMER "Владимир Шубарин"
    INDEX 01 13:30:50
  TRACK 04 AUDIO
TITLE "Аукцион"
PERFORMER "Владимир Шубарин"
    INDEX 01 18:20:68
  TRACK 05 AUDIO
TITLE "Катари"
PERFORMER "Владимир Шубарин"
    INDEX 01 21:50:07
  TRACK 06 AUDIO
TITLE "Влюбился"
PERFORMER "Владимир Шубарин"
    INDEX 01 24:57:18
  TRACK 07 AUDIO
TITLE "Не спешите"
PERFORMER "Владимир Шубарин"
    INDEX 01 29:14:09
  TRACK 08 AUDIO
TITLE "Выпить бы"
PERFORMER "Владимир Шубарин"
    INDEX 01 33:13:25
  TRACK 09 AUDIO
TITLE "Танго"
PERFORMER "Владимир Шубарин"
    INDEX 01 37:19:55
  TRACK 10 AUDIO
TITLE "На Гавайях"
PERFORMER "Владимир Шубарин"
    INDEX 01 41:57:00

https://yadi.sk/d/uSQYCGbo9UJTf

ОЦИФРОВКА С ОЛИМПА! (для сравнения)

ссылка в WAV

https://yadi.sk/d/HNtD1QrCS6aFj

0

2

http://savepic.ru/9096409.png

0

3

Все гордые стали ??? Что трудно Спасибо людям написать которые поделились записью
Мне ничего лично не нужно ... За державу обидно...

Развет от такой игры не бегают мурашки по телу ??? Вы что ребята ???

Сергей Орехов и Владимир Шубарин "Марджанджа"

0


Вы здесь » Tutnet-fufla » Отечественный шансон.Авторская песня » Владимир Шубарин - Мое открытие Италии (1990) ) Lossless