Доброго время суток господа и дамы. Данные записи .альбомы не украдены .
а приватизированы у спившигося негодяя с вт который наз. себя Админ. муз. группы который
провацирует и оскорбляет пользователей выводя их
на оскорбления в адрес друг друга .. Это не оговор ... Это правда
Спасибо тому чел. кто счёл нужным поделиться и выставил в сеть Кто сидел и цифр. запись
чтоб люди могли послушать любимую муз.


Все благодарности Борис 63  с вт
Спасибо Боря..........
..

Николай Тюханов - Новая версия - 1993 год [Lossless]

Оцифровка с кассеты из личной коллекции!
Юра мне кассеты привёз - но на его кассете качество слабее,чем я у себя нашёл!
Для Юры - Юр спасибо,что напомнил мне об исполнителе,благодаря тебе и выставляю данную запись!

Разбито на 2 трека - по стороне кассеты!

Треклист:

01. Дайте мне орден
02. Размен
03. На московском на вокзале
04. Железяка
05. У нас в десертном баре
06. Жили два товарища
07. Песня одесского вора
08. Депутат Петров
09. Грохнули Петьку
10. Танго
11. Святое место
12. Монастырь
13. Водила
14. Жизнь всё расставит по местам

   
ссылка

http://yadi.sk/d/VnSdG0wW2wfeo

CUE:

Цитата:
REM GENRE Chanson
REM DATE 1993
PERFORMER "Николай Тюханов"
TITLE "Новая версия"
REM COMMENT "Оцифровка - Борис 63"
FILE "Тюханов - - новая версия - (1).flac" WAVE
TRACK 01 AUDIO
TITLE "Дайте мне орден"
PERFORMER "Николай Тюханов"
INDEX 01 00:00:00
TRACK 02 AUDIO
TITLE "Размен"
PERFORMER "Николай Тюханов"
INDEX 01 02:21:22
TRACK 03 AUDIO
TITLE "На московском на вокзале"
PERFORMER "Николай Тюханов"
INDEX 01 07:33:57
TRACK 04 AUDIO
TITLE "Железяка"
PERFORMER "Николай Тюханов"
INDEX 01 12:18:04
TRACK 05 AUDIO
TITLE "У нас в десертном баре"
PERFORMER "Николай Тюханов"
INDEX 01 16:55:59
TRACK 06 AUDIO
TITLE "Жили два товарища"
PERFORMER "Николай Тюханов"
INDEX 01 19:21:54
TRACK 07 AUDIO
TITLE "Песня одесского вора"
PERFORMER "Николай Тюханов"
INDEX 01 22:09:49
FILE "Тюханов - - новая версия - (2).flac" WAVE
TRACK 08 AUDIO
TITLE "Депутат Петров"
PERFORMER "Николай Тюханов"
INDEX 01 00:00:00
TRACK 09 AUDIO
TITLE "Грохнули Петьку"
PERFORMER "Николай Тюханов"
INDEX 01 02:30:66
TRACK 10 AUDIO
TITLE "Танго"
PERFORMER "Николай Тюханов"
INDEX 01 05:21:74
TRACK 11 AUDIO
TITLE "Святое место"
PERFORMER "Николай Тюханов"
INDEX 01 08:35:62
TRACK 12 AUDIO
TITLE "Монастырь"
PERFORMER "Николай Тюханов"
INDEX 01 13:10:09
TRACK 13 AUDIO
TITLE "Водила"
PERFORMER "Николай Тюханов"
INDEX 01 17:25:03
TRACK 14 AUDIO
TITLE "Жизнь всё расставит по местам"
PERFORMER "Николай Тюханов"
INDEX 01 22:06:47