Tutnet-fufla

Объявление

Введите здесь ваше объявление.

Информация о пользователе

Привет, Гость! Войдите или зарегистрируйтесь.


Вы здесь » Tutnet-fufla » Отечественный шансон.Авторская песня » Александр Бычков - 1989 год (24/96) Lossless


Александр Бычков - 1989 год (24/96) Lossless

Сообщений 1 страница 7 из 7

1

Даную запись любезно предоставил мод. с вт синдикат фашист .
Все благодарности Борис 63 Спасибо Боря ..

Александр Бычков - 1989 год (24/96) Lossless

оцифровка с катушки из личной коллекции

http://i66.fastpic.ru/big/2014/0712/c2/d6e9eff31c2a5d00391050f02802a2c2.png

Код:
REM GENRE "Shanson"
REM DATE 1989
REM COMMENT "Оцифровка - Борис 63"
TITLE "Магнитоальбом"
PERFORMER "Александр Бычков"
FILE "Александр Бычков - 1989 год.flac" WAVE
  TRACK 01 AUDIO
TITLE "Я еду с самой Воркуты"
PERFORMER "Александр Бычков"
    INDEX 01 00:02:38
  TRACK 02 AUDIO
TITLE "А там море Чёрное"
PERFORMER "Александр Бычков"
    INDEX 01 03:42:32
  TRACK 03 AUDIO
TITLE "Я не был заграницей"
PERFORMER "Александр Бычков"
    INDEX 01 08:45:70
  TRACK 04 AUDIO
TITLE "Мне без тебя одиноко"
PERFORMER "Александр Бычков"
    INDEX 01 14:15:12
  TRACK 05 AUDIO
TITLE "Прощальный вечер"
PERFORMER "Александр Бычков"
    INDEX 01 18:12:55
  TRACK 06 AUDIO
TITLE "Что за встреча"
PERFORMER "Александр Бычков"
    INDEX 01 21:53:16
  TRACK 07 AUDIO
TITLE "Мурманск"
PERFORMER "Александр Бычков"
    INDEX 01 28:31:38

Скрытый текст:

Для просмотра скрытого текста - войдите или зарегистрируйтесь.

0

2

(24|96) Александр Бычков -хулиган- 1990 год (lossless)

http://i48.fastpic.ru/big/2015/0503/54/879419a850b5d1cb0174441ccb0d1654.jpg

Оцифровка с катушки из личной коллекции.Борис 63
Спасибо

Подача сигнала - катушечник TECHNICS -1506

http://i60.fastpic.ru/big/2015/0503/c6/7d5826967542ab3f3402e2388f392cc6.jpg

Треклист:

01 Александр Бычков - Intro
02 Александр Бычков - Хулиган
03 Александр Бычков - Дядя СПИД
04 Александр Бычков - Ресторан
05 Александр Бычков - Чёрное море
06 Александр Бычков - Эротика
07 Александр Бычков - Страна Лимония
08 Александр Бычков - Утро в московской квартире
09 Одесса-Мама - Ещё жива красавица Одесса
10 Одесса-Мама - Жизнь-копейка
11 Одесса-Мама - И хочется и колется!
12 Одесса-Мама - Я не стану эмигрантом
13 А. Анисимов - Охеяна

CUE:

Код:
REM GENRE "Shanson"
REM DATE 1990
REM COMMENT "Оцифровка - Борис 63"
TITLE "Хулиган"
PERFORMER "Александр Бычков"
FILE "Бычков 1990.flac" WAVE
  TRACK 01 AUDIO
TITLE "Intro"
PERFORMER "Александр Бычков"
    INDEX 01 00:00:00
  TRACK 02 AUDIO
TITLE "Хулиган"
PERFORMER "Александр Бычков"
    INDEX 01 00:42:30
  TRACK 03 AUDIO
TITLE "Дядя СПИД"
PERFORMER "Александр Бычков"
    INDEX 01 04:46:43
  TRACK 04 AUDIO
TITLE "Ресторан"
PERFORMER "Александр Бычков"
    INDEX 01 08:15:42
  TRACK 05 AUDIO
TITLE "Чёрное море"
PERFORMER "Александр Бычков"
    INDEX 01 13:01:25
  TRACK 06 AUDIO
TITLE "Эротика"
PERFORMER "Александр Бычков"
    INDEX 01 17:49:09
  TRACK 07 AUDIO
TITLE "Страна Лимония"
PERFORMER "Александр Бычков"
    INDEX 01 22:28:60
  TRACK 08 AUDIO
TITLE "Утро в московской квартире"
PERFORMER "Александр Бычков"
    INDEX 01 26:00:29
  TRACK 09 AUDIO
TITLE "Ещё жива красавица Одесса"
PERFORMER "Одесса-Мама"
    INDEX 01 30:45:50
  TRACK 10 AUDIO
TITLE "Жизнь-копейка"
PERFORMER "Одесса-Мама"
    INDEX 01 34:33:29
  TRACK 11 AUDIO
TITLE "И хочется и колется!"
PERFORMER "Одесса-Мама"
    INDEX 01 36:48:13
  TRACK 12 AUDIO
TITLE "Я не стану эмигрантом"
PERFORMER "Одесса-Мама"
    INDEX 01 41:00:32
  TRACK 13 AUDIO
TITLE "Охеяна"
PERFORMER "А. Анисимов"
    INDEX 01 42:51:37

Залито одним файлом не порезан.

Скрытый текст:

Для просмотра скрытого текста - войдите или зарегистрируйтесь.

0

3

Исполнитель: Бычков Александр
Альбом: Хулиган(лучшие песни)
Год выпуска: 2008
Формат: MP3
Жанр: шансон
Качество: 320
Размер: 182.0

http://savepic.ru/9069115.png

01. Хулиган.
02. Развод по совдеповски.
03. Страна Лимония.
04. Не пара.
05. Одесса.
06. Ресторан.)
07. Я еду с Воркуты.)
08. Фонограмма.
09. Мурманск
10. Эротический балет.
11. Бизнесмен.
12. Дедушкин рассказ.
13. Черное море.
14. Инфляция.
15. Кипарисы-каштаны.
16. На Борисовских прудах.
17. Прощальный вечер.
18. Дядя СПИД.
19. Сон крестьянина.mp3

https://yadi.sk/d/YcgXqg7EqQvrp

0

4

Сруль саломонович с вт сказал что выставит в суп. кач альбом из своей лич. кол.
будем ждать а пока вот послушаем с ютуба

0

5

Александр Бычков - Я еду с Воркуты! Отстой какой то....

0

6

#p27229,Апонас написал(а):

Александр Бычков - Я еду с Воркуты! Отстой какой то....

Ну это ваше мнение вы в праве его иметь и отстаивать . Ответьте мне только на один вопрос .
В этой песне есть один очень инт. момент . назовите ....
Ладно по причине того.что вы себя сегодня очень хорошо ведёте я подскажу Вам ...

=Spoiler написал(а):

http://savepic.ru/12359932.png

0

7

Хорошая оцифровка,спасибо Борису.

0


Вы здесь » Tutnet-fufla » Отечественный шансон.Авторская песня » Александр Бычков - 1989 год (24/96) Lossless