Tutnet-fufla

Объявление

Введите здесь ваше объявление.

Информация о пользователе

Привет, Гость! Войдите или зарегистрируйтесь.


Вы здесь » Tutnet-fufla » Отечественный шансон.Авторская песня » (24/96) Аркадий Хаславский - (катушка -почти оригинал)


(24/96) Аркадий Хаславский - (катушка -почти оригинал)

Сообщений 1 страница 3 из 3

1

Здравствуйте парни ... нет ссылку не крал..Мод. синдикат с вт дал .
Все Благодарности за оц. Борису 63 с вт и Вит70  за трек лист....
Спасибо парни ... Удалять тут ничего не буду....

Борис 63 
(24/96) Аркадий Хаславский - (катушка -почти оригинал)

Вот и закончил я профилактику очередному малышу!

Скоро допишется данная запись!

Звучит Малёк очень достойно!

трек лист

1 Ха-ха-ха
2 Попугай
3 Эх,гулял
4 Первая волна
5 Гражданская война
6 Ах,Одесса
7 Я тебе расскажу
8 Я - МАХА
9 Колокольчик
10 Ты бросил якорь
11 Трава - мурава
12 Маринэ
13 Нельзя вернуть назад

ссылка

Скрытый текст:

Для просмотра скрытого текста - войдите или зарегистрируйтесь.

Вит70 

Вот трек-лист:

1 Ха-ха-ха
2 Попугай
3 Эх,гулял
4 Первая волна
5 Гражданская война
6 Ах,Одесса
7 Я тебе расскажу
8 Я - МАХА
9 Колокольчик
10 Ты бросил якорь
11 Трава - мурава
12 Маринэ
13 Нельзя вернуть назад

0

2

Боря нет я не трогал твою запись А вот это как ??????
это мп3

Ты главное не таи обиды на ребят всё нормально.... Гуляем мы сегодня ...
Удачи и всех благ... Отвечать тут не надо ...

http://s15.rimg.info/f86727034addfbc3c043f2515f14e1dc.gif

http://i65.fastpic.ru/thumb/2014/0712/47/64464a88e4fe7bb26671a1fcee1e0c47.jpeg

Боря пусть Админ муз. группы и мод. муз. ресурса скажут время трека в лосл....

0

3

[24/96] Аркадий Хаславский, Г.Шевелёва, Леонид Добров - магнитоальбом "Ха-ха" (1990)
Аркадий Хаславский, Галина Шевелёва, Леонид Добров - магнитоальбом "Ха-ха-ха" (1990)
исполнитель - Аркадий Хаславский, Галина Шевелёва,Леонид Добров
альбом - Ха-ха
жанр - поп-шансон
год - 1990
оцифровка с магнитофонной ленты из личной коллекции Борис 63
Подача сигнала - катушечная дека - AKAI gx - 266 II
Запись на цифровой рекордер - Zoom h4n
Обработка отсутствует.
Аудио кодек: FLAC
Тип рипа: image+.cue
Формат записи: 24/96
Формат раздачи: 24/96
1 Ха-ха-ха
2 Попугай
3 Эх,гулял
4 Первая волна
5 Гражданская война
6 Ах,Одесса
7 Я тебе расскажу
8 Я - МАХА
9 Колокольчик
10 Ты бросил якорь
11 Трава - мурава
12 Маринэ
Код:
REM GENRE Chanson
REM DATE 1990
REM COMMENT Оцифровка Борис 63
PERFORMER "Аркадий Хаславский"
TITLE "Ха-ха"
FILE "Аркадий Хаславский - Ха-ха 1990.flac" WAVE
  TRACK 01 AUDIO
TITLE "Ха-ха-ха"
PERFORMER "Аркадий Хаславский"
    INDEX 01 00:00:59
  TRACK 02 AUDIO
TITLE "Попугай"
PERFORMER "Аркадий Хаславский"
    INDEX 01 03:26:68
  TRACK 03 AUDIO
TITLE "Эх,гулял"
PERFORMER "Аркадий Хаславский"
    INDEX 01 05:57:18
  TRACK 04 AUDIO
TITLE "Первая волна"
PERFORMER "Аркадий Хаславский"
    INDEX 01 09:48:49
  TRACK 05 AUDIO
TITLE "Гражданская война"
PERFORMER "Аркадий Хаславский"
    INDEX 01 13:40:43
  TRACK 06 AUDIO
TITLE "Ах,Одесса"
PERFORMER "Аркадий Хаславский"
    INDEX 01 17:01:63
  TRACK 07 AUDIO
TITLE "Я тебе расскажу"
PERFORMER "Аркадий Хаславский"
    INDEX 01 19:35:48
  TRACK 08 AUDIO
TITLE "Я - МАХА"
PERFORMER "Аркадий Хаславский"
    INDEX 01 23:21:23
  TRACK 09 AUDIO
TITLE "Колокольчик"
PERFORMER "Аркадий Хаславский"
    INDEX 01 27:45:42
  TRACK 10 AUDIO
TITLE "Ты бросил якорь"
PERFORMER "Аркадий Хаславский"
    INDEX 01 31:54:06
  TRACK 11 AUDIO
TITLE "Трава - мурава"
PERFORMER "Аркадий Хаславский"
    INDEX 01 34:42:70
  TRACK 12 AUDIO
TITLE "Маринэ"
PERFORMER "Аркадий Хаславский"
    INDEX 01 38:22:00
  TRACK 13 AUDIO
TITLE "Нам было просто и не просто двумя дорогами пройти"
PERFORMER "Аркадий Хаславский"
    INDEX 01 42:25:14

https://yadi.sk/d/xv7ximog80A4E

0


Вы здесь » Tutnet-fufla » Отечественный шансон.Авторская песня » (24/96) Аркадий Хаславский - (катушка -почти оригинал)