Данная запись любезно предоставлена мод. с вт фашистом синдикатом
Все благодарности Борис 63 
Спасибо Боря

(24/96) ИГОРЬ КЛЮКИН - Заметался пожар - 1992 год

Оцифровка с катушки из личной коллекции

Электроника - 004 к

Полная профилактика
Замена голов на новые
Настройка по Тест ленте
Замена всех электролитов
Полная смазка и чистка ЛПМ

Соответствие паспортным характеристикам - 100%

трек лист

01-Заметался пожар голубой
02-Тучи над Россией
03-Здесь раньше храм стоял
04-Русская армия
05-В суете нашей жизни
06-Верочка
07-Сон
08-Земля родная
дописка
гр.Гуляй поле
09-Рубаха красная
10-Одесса,Мама

CUE:

Код:
REM GENRE "Поп-шансон"
REM DATE 1992
REM COMMENT "Оцифровка - Борис 63"
TITLE "Заметался пожар"
PERFORMER "Игорь Клюкин"
FILE "Игорь Клюкин.flac" WAVE
  TRACK 01 AUDIO
TITLE "Заметался пожар голубой "
PERFORMER "Игорь Клюкин"
    INDEX 01 00:01:27
  TRACK 02 AUDIO
TITLE "Тучи над Россией "
PERFORMER "Игорь Клюкин"
    INDEX 01 04:30:45
  TRACK 03 AUDIO
TITLE "Здесь раньше храм стоял "
PERFORMER "Игорь Клюкин"
    INDEX 01 11:46:15
  TRACK 04 AUDIO
TITLE "Русская армия"
PERFORMER "Игорь Клюкин"
    INDEX 01 17:10:32
  TRACK 05 AUDIO
TITLE "В суете нашей жизни "
PERFORMER "Игорь Клюкин"
    INDEX 01 21:24:32
  TRACK 06 AUDIO
TITLE "Верочка "
PERFORMER "Игорь Клюкин"
    INDEX 01 26:25:40
  TRACK 07 AUDIO
TITLE "Сон"
PERFORMER "Игорь Клюкин"
    INDEX 01 31:49:38
  TRACK 08 AUDIO
TITLE "Земля родная"
PERFORMER "Игорь Клюкин"
    INDEX 01 35:53:63
  TRACK 09 AUDIO
TITLE "Рубаха красная"
PERFORMER "гр.Гуляй поле"
    INDEX 01 40:22:16
  TRACK 10 AUDIO
TITLE "Одесса,Мама"
PERFORMER "гр.Гуляй поле"
    INDEX 01 44:12:25
   

ссылка FLAC+CUE:

Скрытый текст:

Для просмотра скрытого текста - войдите или зарегистрируйтесь.