Это интересно Скрыть

Tutnet-fufla

Информация о пользователе

Привет, Гость! Войдите или зарегистрируйтесь.


Вы здесь » Tutnet-fufla » Отечественный шансон.Авторская песня » [24/96] Юрий Лоза -Что сказано, то сказано (1989 (записи 87 года)


[24/96] Юрий Лоза -Что сказано, то сказано (1989 (записи 87 года)

Сообщений 1 страница 2 из 2

1

Все благодарности Борис 63  Спасибо Боря пусть люди качают
и слушают муз.а не унижаются перед димулей Видет бог я не хотел так поступать ....
и в состоянии перезалить .... Спасибо

[24/96] Юрий Лоза -Что сказано, то сказано (1989 (записи 87 года)) Lossless

Оцифровка с винила

СUE:

Код:
REM GENRE "авт песня, рок"
REM DATE 1989
REM COMMENT "Оцифровка - Борис 63"
TITLE "Что сказано, то сказано"
PERFORMER "Юрий Лоза"
FILE "1.flac" WAVE
  TRACK 01 AUDIO
TITLE "Что сказано, то сказано"
PERFORMER "Юрий Лоза"
    INDEX 01 00:15:11
  TRACK 02 AUDIO
TITLE "Не принимай"
PERFORMER "Юрий Лоза"
    INDEX 01 03:31:68
  TRACK 03 AUDIO
TITLE "Сто часов"
PERFORMER "Юрий Лоза"
    INDEX 01 07:47:41
  TRACK 04 AUDIO
TITLE "Зима"
PERFORMER "Юрий Лоза"
    INDEX 01 11:28:07
  TRACK 05 AUDIO
TITLE "Я умею мечтать"
PERFORMER "Юрий Лоза"
    INDEX 01 15:31:58
  TRACK 06 AUDIO
TITLE "Мать пишет..."
PERFORMER "Юрий Лоза"
    INDEX 01 19:27:46
FILE "2.flac" WAVE
  TRACK 07 AUDIO
TITLE "Неотразимый"
PERFORMER "Юрий Лоза"
    INDEX 01 00:13:03
  TRACK 08 AUDIO
TITLE "Резиновые дни"
PERFORMER "Юрий Лоза"
    INDEX 01 03:06:56
  TRACK 09 AUDIO
TITLE "Пиво"
PERFORMER "Юрий Лоза"
    INDEX 01 06:53:31
  TRACK 10 AUDIO
TITLE "Одиночество"
PERFORMER "Юрий Лоза"
    INDEX 01 11:24:15
  TRACK 11 AUDIO
TITLE "Плот"
PERFORMER "Юрий Лоза"
    INDEX 01 14:58:29
       

ссылка FLAC+CUE:

Скрытый текст:

Для просмотра скрытого текста - войдите или зарегистрируйтесь.

0

2

А что из 20 человек не у кого рука не повернулась написать
ДВА СЛОВА ТОМУ КТО ЦИФРОВАЛ ????

0


Вы здесь » Tutnet-fufla » Отечественный шансон.Авторская песня » [24/96] Юрий Лоза -Что сказано, то сказано (1989 (записи 87 года)