Все благодарности Борис 63
с вт .... Спасибо Боря ну не хотел я так поступать ...
Люди не должны перед фашистами димулей и синдикатом унижаться чтоб послушать муз.
и выслушивать оскорбления в свой адрес

[24/96] Любэ - Атас (1991) Lossless

Код:
REM GENRE "Рок"
REM DATE 1991
REM COMMENT "Оцифровка - Борис 63"
TITLE "Атас"
PERFORMER "Любэ"
FILE "Любэ - Атас-1.flac" WAVE
  TRACK 01 AUDIO
TITLE "Люберцы"
PERFORMER "Любэ"
    INDEX 01 00:02:66
  TRACK 02 AUDIO
TITLE "Клетки"
PERFORMER "Любэ"
    INDEX 01 03:15:31
  TRACK 03 AUDIO
TITLE "Рулетка"
PERFORMER "Любэ"
    INDEX 01 05:58:55
  TRACK 04 AUDIO
TITLE "Дуся-агрегат"
PERFORMER "Любэ"
    INDEX 01 09:04:21
  TRACK 05 AUDIO
TITLE "Ночь"
PERFORMER "Любэ"
    INDEX 01 13:53:21
  TRACK 06 AUDIO
TITLE "Медовый месяц"
PERFORMER "Любэ"
    INDEX 01 17:29:47
FILE "Любэ - Атас-2.flac" WAVE
  TRACK 07 AUDIO
TITLE "Атас"
PERFORMER "Любэ"
    INDEX 01 00:02:70
  TRACK 08 AUDIO
TITLE "Не губите, мужики"
PERFORMER "Любэ"
    INDEX 01 03:23:43
  TRACK 09 AUDIO
TITLE "Станция Таганская"
PERFORMER "Любэ"
    INDEX 01 07:28:55
  TRACK 10 AUDIO
TITLE "Батька Махно"
PERFORMER "Любэ"
    INDEX 01 11:05:33
  TRACK 11 AUDIO
TITLE "Так всегда"
PERFORMER "Любэ"
    INDEX 01 14:49:59
       

FLAC+CUE:

Скрытый текст:

Для просмотра скрытого текста - войдите или зарегистрируйтесь.