Tutnet-fufla

Объявление

Введите здесь ваше объявление.

Информация о пользователе

Привет, Гость! Войдите или зарегистрируйтесь.


Вы здесь » Tutnet-fufla » Аркадий Северный Записи и концерты » Аркадий Северный у Калятина (1975) Lossless


Аркадий Северный у Калятина (1975) Lossless

Сообщений 1 страница 7 из 7

1

Здравствуйте парни ... Нет ну нет не малейшего желания разводить говнотёрки
честно говорю ... Но и люди не должны унижаться перед спившимся негодяем с вт
димулей чтоб муз. послушать ...
Все благодарности Борис 63 с вт
Нет Боря я ничего не крал .. Спасибо за запись но
мне кажетьсчя что придурок димуля рыло всунул в оц.

Аркадий Северный у Калятина (1975) Lossless

исполнитель - Северный Аркадий
альбом - первая запись у Д.М.Калятина
место записи - посёлок Весёлый
дата - 23 сентября 1975 года
оцифровка с кассеты из личной коллекции
источник подачи сигнала - кассетная дека - AKAI gxc 310 d
Дека представлена на заставке
Записано на cd recorder -DENON 1000

трек лист на сторону !

1 Цыганский романс
2 Ресницы
3 Где ты радость моя
4 Звуки гитары
5 Где ты юность моя
6 Тихий вечер
7 Ты не придешь
8 Сочи
9 Капелька яда
10 Византийская культура
11 Встреча
12 Туман
13 Поблёкшая карточка
14 Как хочется
15 Гагры
16 Всё та же гитара
17 Сорок фамилий
18 Стук монотонных колёс

ссылка

http://yadi.sk/d/q1z5KJbt1wgSO

сторона 2

1 Зелёные глаза
2 Перебиты поломаны крылья
3 Записка
4 Песня о юге
5 Устал я жить
6 Карантин
7 Зоосад
8 Я точу кинжал
9 Когда меня не станет
10 В диком лесу
11 не забывай
12 Письма
13 Тополь отцвёл
14 Истиная вера
15 истиная вера 2
16 Ночь над Ленинградом
17 Султан
18 Старые письма
19 Студент
20 Смелость
21 Заключение концерта

ссылка
Ссылку спиздел дмитрий сруль

0

2

Пользуясь случаем хочу передать этому придурку димуле с вт
Чтоб почитал книгу Льва Шейнина ....

http://i67.fastpic.ru/big/2015/1013/91/f3b66ad2a17a7b68d7d3630eb911a391.png

Щас парни я дам ссылку вот на такой конц. а этот гондошка пусть лыкает шнягу у ишака

01. Тихо табор цыганский уснул...
02. Ты закрой ресницы, милая моя...
03. Что-то стонет душа одинокая...
04. Слышались звуки гитары...
05. Где ты, юность моя...
06. Вечер над Невою догорает...
07. Ты не приедешь, я не жду тебя...
08. Маленький курортный город Сочи...
09. Ничего от тебя мне не надо...
10. Ну, вспомни Византийскую культуру...
11. Как ты встретишь меня ты любимая...
12. В твоих глазах всегда туман...
13. Не спеши, запоздалая тройка...
14. Как хочется к груди твоей прижаться...
15. Едут к морю электрички...
16. Всё как прежде, всё та же гитара...
17. У меня было сорок фамилий...
18. Ты не пришла провожать...
19. Как хочется хоть раз...
20. Перебиты, поломаны крылья...
21. Прощай, мой друг, пора моя настала...
22. Я помню, друг, прекрасный юг...
23. Устал я жить, душа моя остыла...
24. Закрой глаза и вспомни карантин...
25. Сегодня в нашей комплексной бригаде...
26. Как турецкая сабля, твой стан...
27. Настанет час, когда меня не станет...
28. В диком лесу на валун вековой...
29. Я, расставаясь, не сказал "Прощай"...
30. Далеко за окнами на юге...
31. На знакомой скамейке не встречаем мы больше рассвета...
32. Потеряли истинную веру...
33. Потеряли истинную веру...
34. Опустилась ночь над Ленинградом...
35. В гареме нежился султан...
36. В запыленной связке старых писем...
37. Возможно, мы еще не пили...
38. Словами не лечат, но...
39. Заключительное слово

https://yadi.sk/d/KoWylBqPXG2no

димуля скот сраный запомни мои слова . Люди никогда не будут перед тобой
прогибаться и унижаться чтоб муз. послушать ... Пошёл на х...й сука сраная

0

3

Первая оц. вот с этого ап.

http://i67.fastpic.ru/thumb/2015/1013/57/783b995f613feeb54a265a2575b18b57.jpeg

http://i57.fastpic.ru/big/2015/0425/42/97a83d51a1528877951206163522c242.jpg
Не малейшиго фотошопа Весь мат взят в сети инт ....

0

4

И вот спустя годы нашлась вторая часть и ссылка....

https://yadi.sk/mail/?hash=vKBtxJHhi962q+Pu5Xm/rdtS0JnCSOSMAkQE9Rkq1+E=&uid=423865181&force_show=1

Аркадий Северный - 1-ый у Калятина - Вторая сторона.cue

Код:
REM GENRE "Блат"
REM DATE 1975
REM COMMENT "Оцифровка - Борис 63"
TITLE "1-ый концерт у Калятина"
PERFORMER "Аркадий Северный"
FILE "Северный 2ст.flac" WAVE
  TRACK 01 AUDIO
TITLE "Зеленые глаза"
PERFORMER "Аркадий Северный"
    INDEX 01 00:01:64
  TRACK 02 AUDIO
TITLE "Перебиты, поломаны крылья..."
PERFORMER "Аркадий Северный"
    INDEX 01 02:14:30
  TRACK 03 AUDIO
TITLE "Записка (Прощай, мой друг, пора моя настала...)"
PERFORMER "Аркадий Северный"
    INDEX 01 04:19:16
  TRACK 04 AUDIO
TITLE "Я помню, друг, прекрасный юг..."
PERFORMER "Аркадий Северный"
    INDEX 01 06:33:50
  TRACK 05 AUDIO
TITLE "Устал я жить, душа моя остыла..."
PERFORMER "Аркадий Северный"
    INDEX 01 08:08:50
  TRACK 06 AUDIO
TITLE "Закрой глаза и вспомни карантин..."
PERFORMER "Аркадий Северный"
    INDEX 01 10:39:38
  TRACK 07 AUDIO
TITLE "Сегодня в нашей комплексной бригаде..."
PERFORMER "Аркадий Северный"
    INDEX 01 12:21:68
  TRACK 08 AUDIO
TITLE "Как турецкая сабля, твой стан..."
PERFORMER "Аркадий Северный"
    INDEX 01 14:40:14
  TRACK 09 AUDIO
TITLE "Настанет час, когда меня не станет..."
PERFORMER "Аркадий Северный"
    INDEX 01 16:40:45
  TRACK 10 AUDIO
TITLE "В диком лесу, на валун вековой..."
PERFORMER "Аркадий Северный"
    INDEX 01 17:37:16
  TRACK 11 AUDIO
TITLE "Я, расставаясь, не сказал: 'прощай'..."
PERFORMER "Аркадий Северный"
    INDEX 01 18:33:18
  TRACK 12 AUDIO
TITLE "Далеко за окнами на юге..."
PERFORMER "Аркадий Северный"
    INDEX 01 22:26:49
  TRACK 13 AUDIO
TITLE "На знакомой скамейке не встречаем мы больше рассвета..."
PERFORMER "Аркадий Северный"
    INDEX 01 24:33:43
  TRACK 14 AUDIO
TITLE "Потеряли истинную веру..."
PERFORMER "Аркадий Северный"
    INDEX 01 27:41:33
  TRACK 15 AUDIO
TITLE "Опустилась ночь над Ленинградом..."
PERFORMER "Аркадий Северный"
    INDEX 01 29:05:44
  TRACK 16 AUDIO
TITLE "В гареме нежился султан..."
PERFORMER "Аркадий Северный"
    INDEX 01 33:00:54
  TRACK 17 AUDIO
TITLE "В запыленной связке старых писем..."
PERFORMER "Аркадий Северный"
    INDEX 01 34:26:07
  TRACK 18 AUDIO
TITLE "Возможно, мы еще не пили..."
PERFORMER "Аркадий Северный"
    INDEX 01 36:45:39
  TRACK 19 AUDIO
TITLE "Словами не лечат..."
PERFORMER "Аркадий Северный"
    INDEX 01 37:56:09
  TRACK 20 AUDIO
TITLE "Заключение"
PERFORMER "Аркадий Северный"
    INDEX 01 40:34:06
  TRACK 21 AUDIO
TITLE "-"
PERFORMER "-"
    INDEX 01 40:55:19

0

5

дмитрий витальевич правильно гуцтаришь к одному формату в 128 приведи . и будет нормально

http://savepic.ru/13307703.jpg
дмитрий витальевич вот этот трек вырежи из бориной оц и выстави спектры сюда . иди и выполняй
чуть не забыл обязательно перенеси этот шедевр на жёсткий диск купленый ....

[audio]http://d.zaix.ru/3nzb.mp3[/audio]

0

6

дмитрий витальевич т.к ты мозги пропил ак за 1000 р. тебе никто не продаёт вот от сюда выстави этот же трек ...
и я гордится буду тобой ....

http://savepic.ru/13309771.jpg

0

7

ребята митя оплатить обещал рекл вт ...

говорит что это с первой копии и в попе все акаи

http://www.vsetutonline.com/forum/showt … p?t=103035

0


Вы здесь » Tutnet-fufla » Аркадий Северный Записи и концерты » Аркадий Северный у Калятина (1975) Lossless