Tutnet-fufla

Объявление

Введите здесь ваше объявление.

Информация о пользователе

Привет, Гость! Войдите или зарегистрируйтесь.


Вы здесь » Tutnet-fufla » Шансон в форм. lossless » (24/96) Александр Кузнецов - Здравствуй, это я! - 1993 г


(24/96) Александр Кузнецов - Здравствуй, это я! - 1993 г

Сообщений 1 страница 3 из 3

1

Здравствуйте Господа. Данный реал не украден
а приватизирован у спившигося шизофреника с вт дмитрия .
Который наз. себя Админ. муз. группы допился совсем
им был совершон побег из дурдомам щас он
Банит и оскорбляет пользователей
чиня беспредел. оскорбляет целые нации людей

Все благодарности Борис 63  Спасибо Боря
но тут никто нечего удалять не будет ты уж извини меня

(24/96) Александр Кузнецов - Здравствуй, это я! - 1993 г. (катушка студии ДАНИЛЕНКО)

Треклист:

01. Возвращаюсь домой
02. Моя судьба
03. Седой налётчик
04. Моя звезда
05. Куда же вам теперь
06. Капитан
07. Здравствуй, это я!
08. Коммуналка
09. Доброй ночи,господа
10. Парижское танго
11. Мой кореш Колька
12. Возвращаюсь

CUE:

Код:
REM GENRE "Shanson"
REM DATE 1993
REM COMMENT "Оцифровка - Борис 63"
TITLE "Здравствуй, это я!"
PERFORMER "Александр Кузнецов"
FILE "АЛЕКСАНДР КУЗНЕЦОВ - Здравствуй,Это я- 1993 год.flac" WAVE
  TRACK 01 AUDIO
TITLE "Возвращаюсь домой"
PERFORMER "Александр Кузнецов"
    INDEX 01 00:00:00
  TRACK 02 AUDIO
TITLE "Моя судьба"
PERFORMER "Александр Кузнецов"
    INDEX 01 02:43:46
  TRACK 03 AUDIO
TITLE "Седой налётчик"
PERFORMER "Александр Кузнецов"
    INDEX 01 05:54:72
  TRACK 04 AUDIO
TITLE "Моя звезда"
PERFORMER "Александр Кузнецов"
    INDEX 01 09:22:43
  TRACK 05 AUDIO
TITLE "Куда же вам теперь"
PERFORMER "Александр Кузнецов"
    INDEX 01 12:42:32
  TRACK 06 AUDIO
TITLE "Капитан"
PERFORMER "Александр Кузнецов"
    INDEX 01 16:25:47
  TRACK 07 AUDIO
TITLE "Здравствуй, это я!"
PERFORMER "Александр Кузнецов"
    INDEX 01 20:40:21
  TRACK 08 AUDIO
TITLE "Коммуналка"
PERFORMER "Александр Кузнецов"
    INDEX 01 24:38:40
  TRACK 09 AUDIO
TITLE "Доброй ночи,господа"
PERFORMER "Александр Кузнецов"
    INDEX 01 28:32:07
  TRACK 10 AUDIO
TITLE "Парижское танго"
PERFORMER "Александр Кузнецов"
    INDEX 01 32:01:72
  TRACK 11 AUDIO
TITLE "Мой кореш Колька"
PERFORMER "Александр Кузнецов"
    INDEX 01 36:52:37
  TRACK 12 AUDIO
TITLE "Возвращаюсь"
PERFORMER "Александр Кузнецов"
    INDEX 01 41:33:38
   

Скачать FLAC+CUE:

https://yadi.sk/mail/?hash=BilBpBZJiO9X4/NC+7KqmbgyyCtGqVoNoMaAQpuvUYA=

http://savepic.ru/13665212.png

0

2

А вот это наверно для избранных .... Нужно мите дать пяток альбомов а потом он подумает
дать ли этот

http://savepic.ru/13670332.jpg

0

3

дмитрий витальевич у меня пару вопросов

1, Вот это что ??????
2, Сколько времени вы будите мозг людям е...ь ???

http://savepic.ru/13641662.jpg
http://savepic.ru/13644734.png

0


Вы здесь » Tutnet-fufla » Шансон в форм. lossless » (24/96) Александр Кузнецов - Здравствуй, это я! - 1993 г