Tutnet-fufla

Объявление

Введите здесь ваше объявление.

Информация о пользователе

Привет, Гость! Войдите или зарегистрируйтесь.


Вы здесь » Tutnet-fufla » Общение на любую тему » Нам подарок прислал с ВТ Сруль


Нам подарок прислал с ВТ Сруль

Сообщений 1 страница 16 из 16

1

(24/96) Аркадий Северный и Крестные отцы - 1976 год (вариант оцифровки)

Оцифровка с катушки. Борис 63

КАТУШКА ПРИЕХАЛА ИЗ ГЕРМАНИИ ,как Пустышка - то есть под запись.

На ней оказался записан этот концерт в такой компановке.

ПОДАЧА СИГНАЛА - Катушечник на фото.

1 сторона

https://yadi.sk/mail/?hash=WW/F+DdtRzkSb4l57Cb5GOgsDetMyRU6MmAWGVtK9Pc=

2 сторона

https://yadi.sk/mail/?hash=7kOPZcJM+Juse1C/3TsK75E0yEhQY4oDRA3ZDajdMd4=

0

2

вона как сабрал денех и купыв

0

3

муля Гость Нет это он у Бори спиз..л

http://i67.fastpic.ru/big/2014/1102/41/3376b282eda272318def9975ba540641.png

Щас придку я покажу как людей банить если не извиниться перед Павликом

0

4

У всех все КО с репами и без 100 лет есть. Сама записть хорошая и оцыфровками угоробить трудно. Этот вариант нам не нужен - у всех есть достойней.

0

5

Пуля Гость да пусть будет ну не у всех же есть в достойном качестве

0

6

ПАЗОР какойта!

0

7

Дарю Срулю

  rusfolder.com/42161566

0

8

Вот Сруль куеписец  прислал

01. Старый город мой для меня хранил память тех далёких дней
02. Эх! Андрюша!
03. Выпьем за Мировую!
04. Осень
05. Когда с тобой мы встретились, черёмуха цвела...
06. Помню двор занесённый снегом белым пушистым...
07. Сладка ягода
08. Заключение + инструментал
09. Лейтенант молодой и красивый...
10. На знакомой скамье не встречаю я больше рассвета...
11. Инструментал
12. Где-то за лесом избушка стояла...
13. Нашей первой любви наступает конец...
14. Одесский порт в ночи простёрт...
15. Ваше Благородие, госпожа Удача!
16. Люба Фейгельман
17. Надену я чёрную шляпу, уеду я в город Анапу
18. Аленушка, Аленушка, Аленка сероглазая...
19. Я спросил у ясеня...
20. Каким меня ты ядом напоила?
21. Марфуша
22. Ты опять сегодня не пришла
23. Салажата
24. Дымок от папиросы
25. Эх, водочка!
26. Хочешь буду твоим Ромэо

........................................

CUE:

Код:
REM GENRE "Shanson"
REM COMMENT "Оцифровка - Борис 63"
TITLE "Магнитоальбом"
PERFORMER "Аркадий Северный"
FILE "1 ст.flac" WAVE
  TRACK 01 AUDIO
TITLE "Старый город мой для меня хранил память тех далёких дней"
PERFORMER "Аркадий Северный"
    INDEX 01 00:00:00
  TRACK 02 AUDIO
TITLE "Эх! Андрюша!"
PERFORMER "Аркадий Северный"
    INDEX 01 04:32:72
  TRACK 03 AUDIO
TITLE "Выпьем за Мировую!"
PERFORMER "Аркадий Северный"
    INDEX 01 06:42:68
  TRACK 04 AUDIO
TITLE "Осень"
PERFORMER "Аркадий Северный"
    INDEX 01 11:08:43
  TRACK 05 AUDIO
TITLE "Когда с тобой мы встретились, черёмуха цвела..."
PERFORMER "Аркадий Северный"
    INDEX 01 16:45:52
  TRACK 06 AUDIO
TITLE "Помню двор занесённый снегом белым пушистым..."
PERFORMER "Аркадий Северный"
    INDEX 01 22:06:00
  TRACK 07 AUDIO
TITLE "Сладка ягода"
PERFORMER "Аркадий Северный"
    INDEX 01 26:15:01
  TRACK 08 AUDIO
TITLE "Заключение + инструментал"
PERFORMER "Аркадий Северный"
    INDEX 01 28:31:68
  TRACK 09 AUDIO
TITLE "Лейтенант молодой и красивый..."
PERFORMER "Аркадий Северный"
    INDEX 01 30:05:42
  TRACK 10 AUDIO
TITLE "На знакомой скамье не встречаю я больше рассвета..."
PERFORMER "Аркадий Северный"
    INDEX 01 32:47:45
  TRACK 11 AUDIO
TITLE "Инструментал"
PERFORMER "Аркадий Северный"
    INDEX 01 36:49:64
  TRACK 12 AUDIO
TITLE "Где-то за лесом избушка стояла..."
PERFORMER "Аркадий Северный"
    INDEX 01 39:34:05
FILE "2 ст.flac" WAVE
  TRACK 13 AUDIO
TITLE "Нашей первой любви наступает конец..."
PERFORMER "Аркадий Северный"
    INDEX 01 00:00:00
  TRACK 14 AUDIO
TITLE "Одесский порт в ночи простёрт..."
PERFORMER "Аркадий Северный"
    INDEX 01 05:29:17
  TRACK 15 AUDIO
TITLE "Ваше Благородие, госпожа Удача!"
PERFORMER "Аркадий Северный"
    INDEX 01 08:00:16
  TRACK 16 AUDIO
TITLE "Люба Фейгельман"
PERFORMER "Аркадий Северный"
    INDEX 01 12:50:72
  TRACK 17 AUDIO
TITLE "Надену я чёрную шляпу, уеду я в город Анапу"
PERFORMER "Аркадий Северный"
    INDEX 01 15:50:43
  TRACK 18 AUDIO
TITLE "Аленушка, Аленушка, Аленка сероглазая..."
PERFORMER "Аркадий Северный"
    INDEX 01 17:58:13
  TRACK 19 AUDIO
TITLE "Я спросил у ясеня..."
PERFORMER "Аркадий Северный"
    INDEX 01 23:09:25
  TRACK 20 AUDIO
TITLE "Каким меня ты ядом напоила?"
PERFORMER "Аркадий Северный"
    INDEX 01 25:56:51
  TRACK 21 AUDIO
TITLE "Марфуша"
PERFORMER "Аркадий Северный"
    INDEX 01 29:53:02
  TRACK 22 AUDIO
TITLE "Ты опять сегодня не пришла"
PERFORMER "Аркадий Северный"
    INDEX 01 32:21:28
  TRACK 23 AUDIO
TITLE "Салажата"
PERFORMER "Аркадий Северный"
    INDEX 01 35:22:73
  TRACK 24 AUDIO
TITLE "Дымок от папиросы"
PERFORMER "Аркадий Северный"
    INDEX 01 38:00:30
  TRACK 25 AUDIO
TITLE "Эх, водочка!"
PERFORMER "Аркадий Северный"
    INDEX 01 41:05:37
  TRACK 26 AUDIO
TITLE "Хочешь буду твоим Ромэо"
PERFORMER "Аркадий Северный"
    INDEX 01 43:58:02

0

9

Если кому интересно можно ознакомиться вот с этим вар.
От припизлднутого шизофреника .. Он говорит что цифровал с орег.
в дурдоме

[16.44] Аркадий Северный с анс. «Крёстные отцы» 1976 (полная версия?), FLAC (image+.cue)

http://i66.fastpic.ru/big/2014/1102/90/00827c212d41ee18ca63167c3150fc90.png

https://yadi.sk/mail/?hash=4rD06bl3sbEZmF6N5YjEBWsM3TAblurqa88kt3HtJZk=

0

10

да димуля придурок шизофрения не лечиться Ты совсем пропил мозги

http://i63.fastpic.ru/big/2014/1102/d5/879bce8284d03756fb96681cf032edd5.jpg

0

11

Аркадий Северный - Люблю я 40 градусов

Оцифровка с кассеты
Разбивкой по трекам занимался ебанутый спившийся хуеписец
с вт димуля сруль .................
Послать его на х...й можно в этой теме ....
ссылка приватизирова.....


Треклист:

01. Люблю я сорок градусов, но только не мороз…
02. Скоро срок окончится, а уезжать, увы не хочется…
03. Нет причин для тоски на свете, что ни баба – то помело…
04. Вы хочете песен – их есть у меня…
05. Черные стрелки обходят циферблат…
06. Отец мой – он, а мать моя – Надежда…
07. В Николаевском на бане…
08. Зачем на свете люди…
09. Ай-яй-яй! Да я несчастная девчоночка…
10. А стало быть, скатилася слеза…
11. Четвертый год пока, тюрьма твой дом ЗэКа…
12. Являйтесь, ребята, с повинной
13. Вы скажете: Бывают в жизни шутки…
14. Мне этот суд не забыть никогда…
15. Не считайте за подлость…

CUE:

Код:
REM GENRE "Shanson"
REM DATE 1975
REM COMMENT "Оцифровка - Борис 63"
TITLE "Люблю я 40 градусов"
PERFORMER "Аркадий Северный"
FILE "Люблю я 40 градусов.flac" WAVE
  TRACK 01 AUDIO
TITLE "Люблю я сорок градусов, но только не мороз…"
PERFORMER "Аркадий Северный"
    INDEX 01 00:00:00
  TRACK 02 AUDIO
TITLE "Скоро срок окончится, а уезжать, увы не хочется…"
PERFORMER "Аркадий Северный"
    INDEX 01 02:30:52
  TRACK 03 AUDIO
TITLE "Нет причин для тоски на свете, что ни баба – то помело…"
PERFORMER "Аркадий Северный"
    INDEX 01 05:14:36
  TRACK 04 AUDIO
TITLE "Вы хочете песен – их есть у меня…"
PERFORMER "Аркадий Северный"
    INDEX 01 10:03:56
  TRACK 05 AUDIO
TITLE "Черные стрелки обходят циферблат…"
PERFORMER "Аркадий Северный"
    INDEX 01 13:16:74
  TRACK 06 AUDIO
TITLE "Отец мой – он, а мать моя – Надежда…"
PERFORMER "Аркадий Северный"
    INDEX 01 15:02:64
  TRACK 07 AUDIO
TITLE "В Николаевском на бане…"
PERFORMER "Аркадий Северный"
    INDEX 01 20:04:67
  TRACK 08 AUDIO
TITLE "Зачем на свете люди…"
PERFORMER "Аркадий Северный"
    INDEX 01 23:54:30
  TRACK 09 AUDIO
TITLE "Ай-яй-яй! Да я несчастная девчоночка…"
PERFORMER "Аркадий Северный"
    INDEX 01 27:08:53
  TRACK 10 AUDIO
TITLE "А стало быть, скатилася слеза…"
PERFORMER "Аркадий Северный"
    INDEX 01 30:30:08
  TRACK 11 AUDIO
TITLE "Четвертый год пока, тюрьма твой дом ЗэКа…"
PERFORMER "Аркадий Северный"
    INDEX 01 36:20:21
  TRACK 12 AUDIO
TITLE "Являйтесь, ребята, с повинной"
PERFORMER "Аркадий Северный"
    INDEX 01 40:35:18
  TRACK 13 AUDIO
TITLE "Вы скажете: Бывают в жизни шутки…"
PERFORMER "Аркадий Северный"
    INDEX 01 44:52:41
  TRACK 14 AUDIO
TITLE "Мне этот суд не забыть никогда…"
PERFORMER "Аркадий Северный"
    INDEX 01 50:10:50
  TRACK 15 AUDIO
TITLE "Не считайте за подлость…"
PERFORMER "Аркадий Северный"
    INDEX 01 57:23:17
Скачать "Люблю я 40 градусов" FLAC+CUE:

https://yadi.sk/mail/?hash=w+BFWwaDS9Li+4iyCNEOOn9R67B7NJDRUhoOOde/i/I=

http://i63.fastpic.ru/big/2014/1103/e3/654a82e6e4374aba6ebbdea4fea938e3.png

0

12

Звёзды ресторанов Воркуты - 1

Tracklist:

01. Черная роза
02. Здравствуй, чужая милая
03. Ах, краса, краса…
04. Где ж ты мой сад?
05. Последний желтый лист
06. Пес
07. Травы, травы
08. Что-то сигарета гаснет
09. Сегодня наш прощальный ужин
10. Землянка
11. Я в весеннем лесу
12. Бабье лето катится
13. Вчера Вас встретила случайно...
14. Давно ты не видел подружку...
15. Шаланды полные кефали
16. Ромашки спрятались
17. Багульник
18. Дымок от папиросы
19. Ах, Одесса
20. Клён
21. Лодочка плывет
22. Зеленая прическа
23. Песня про Подол
24. Поспели вишни
25. Вот мое прощальное письмо
26. Приди ко мне ...
27. Журавли улетели
28. Папиросы
29. Ваше благородие, госпожа...

Оцифровка с катушки! Борис 63
Качество - lossless
На треки не порезано
Каждая сторона записана одним файлом

https://yadi.sk/d/ilWylkZPPao4e

Вот это отзывы спившигося придурка димуле сруля
Он называет себя Админ. муз. группы .

http://i67.fastpic.ru/big/2014/1105/35/bb34975718f2497ccc5fe7d1df38ca35.png

0

13

Александр Дольский - Второй домашний концерт (две гитары) - 15.10.1982

Александр Дольский - Второй домашний концерт (две гитары) - 15.10.1982

Жанр: Авторская песня
Год выпуска: 1982
Страна-производитель: СССР
Аудио кодек: FLAC
Тип рипа: image+.cue
Формат записи: 16/48
Формат раздачи: 16/48
Продолжительность: 01:26:41

Треклист:

Сторона А (00:44:07)

01. Вступление
02. Рецепты коктейлей
03. Господа офицеры
04. Баллада о дружбе
05. Сидели Коля, Света и Сережа
06. Не думай о дурдоме свысока
07. Копченая колбаса
08. В субботу Володя слегка был на взводе
09. Куда ты усобица нас завела
10. Парадный подъезд
11. В дыму ресторанном
12. У Сережи маму звали Клава
13. Как то раз я за иконостасом
14. Я и два биолога в скверике гудели
15. В больнице для алкашиков,а попросту - в дурдоме
16. Сочетания и перестановки (обрыв)

Сторона Б (00:42:34)

17. Деньги-деньги, вещи-вещи
18. Надежда (Эспераль)
19. А мы швейцару - отворите двери
20. Из чего только сделаны мальчики
21. Путь от грусти до веселья
22. Экзамен по химии
23. Устойчивый запах мужчины
24. По шоссе мы ползли,не летели
25. Ох,Сережа
26. Тыловое детство
27. Баллада о безвести пропавшем
28. Музыкант из Освенцима (обрыв)

Обработка: Убраны щелчки в паузах и самые сильные
(5-6 шт) в песнях. Для полноты концерта добавлены
треки №№ 1, 16, 28 из раздачи petrovicchh ,
за что ему спасибо! Куй прописан вручную.
     
скачать:

http://yadi.sk/d/jIsoANnA3l3bo

0

14

http://i68.fastpic.ru/big/2015/0913/92/8e38dc460403a3a02fcd6507ddef1592.jpg
http://i70.fastpic.ru/big/2015/0913/56/2150b961d25e2f9c8d54fd2d839f0056.png

https://yadi.sk/mail/?hash=GLFx66llM9iGJkUt6JDagdi3SyLkxV+CjYNMxu1VO+Y=&uid=252251247

http://i66.fastpic.ru/big/2015/0913/2c/4cf4194b9bf39f2be40215b987aa322c.png

0

15

Зачем чужое выставляешь??? Ответь!!!!????

0

16

Голый написал(а):

Зачем чужое выставляешь??? Ответь!!!!????

ПОКАЖИТЕ МНЕ ПОЖ. хоть один альбом димуле ????
Покажите мне где я нарушил сет. этику
Под каждым альбомом написан источник и я  всегда пишу Спасибо тому кто сидел и цифровал.кто поделился записью .

0


Вы здесь » Tutnet-fufla » Общение на любую тему » Нам подарок прислал с ВТ Сруль