Tutnet-fufla

Объявление

Введите здесь ваше объявление.

Информация о пользователе

Привет, Гость! Войдите или зарегистрируйтесь.


Вы здесь » Tutnet-fufla » Сборники шансон mp3 . Lossless » (24/96) Песни периода НЭПа -1979г. (Одесса)


(24/96) Песни периода НЭПа -1979г. (Одесса)

Сообщений 1 страница 2 из 2

1

Нет парни я не украл данный ревлиз
а приватизировал у спившигося негодяя с вт который
называет себя Админ. муз. груп. ДМИТРИЙ - СРУЛЬ
он банит и оскорбляет польз. проваципуя на оскорбления и мат.... .
Он никогда не был Админ. ВТ это спившийся самозванец.....
дорвавшийся до власти...
Этого негодяя гонят со всех муз. ресурсов.
Это не оговор - это правда..

Все благодарности
Борис 63  Спасибо ...
.

(24/96) Песни периода НЭПа -1979г. (Одесса)

оцифровка с катушечника

Исполнители известные,но катушку подписал именно так,как было на вкладыше!

Треклист:

01. Вступление+Я купил себе пиджак...
02. Как хочеться хоть раз...
03. Жил я в городе Одесса...
04. Плывём, плывём, а берега не видно...
05. Любовь - не есть картошка...
06. Инструментал
07. Фрол Фомич весёлый малый
08. Начальник Барабанов дал приказ...
09. А когда небо голубое в тучах скроется...
10. Луна озарила зеркальную воду...
11. Нэповские годы...
12. Я помню, носил восьмиклинку...
13. Сегодня встретил друга я...
14. Сейчас я дети вам спою нравоучения...
15. Мне хотелось тебя подстеречь...
16. За городской канавой на слободке...
17. А мы швейцару...
18. Осудили судья меня сроком на семь лет
19. Среди топких болот...
20. Инструментал
21. Здравствуй мама, неужели не узнала...
22. Мне нужна теперь девица...
23. Зайдёшь теперь в столовую...
24. Здравствуй мама, неужели не узнала...
25. За бокалом я Вас часто вспоминаю
26. Всюду деньги...

CUE:

Код:
REM GENRE "БЛАТ"
REM DATE 1979
REM COMMENT "Оцифровка - Борис 63"
TITLE "Запись"
PERFORMER "Песни периода НЭПа"
FILE "1 ст.flac" WAVE
  TRACK 01 AUDIO
TITLE "Вступление+Я купил себе пиджак..."
PERFORMER "Песни периода НЭПа"
    INDEX 01 00:00:00
  TRACK 02 AUDIO
TITLE "Как хочеться хоть раз..."
PERFORMER "Песни периода НЭПа"
    INDEX 01 04:53:29
  TRACK 03 AUDIO
TITLE "Жил я в городе Одесса..."
PERFORMER "Песни периода НЭПа"
    INDEX 01 07:37:05
  TRACK 04 AUDIO
TITLE "Плывём, плывём, а берега не видно..."
PERFORMER "Песни периода НЭПа"
    INDEX 01 12:06:44
  TRACK 05 AUDIO
TITLE "Любовь - не есть картошка..."
PERFORMER "Песни периода НЭПа"
    INDEX 01 16:29:28
  TRACK 06 AUDIO
TITLE "Инструментал"
PERFORMER "Песни периода НЭПа"
    INDEX 01 19:09:41
  TRACK 07 AUDIO
TITLE "Фрол Фомич весёлый малый"
PERFORMER "Песни периода НЭПа"
    INDEX 01 19:50:43
  TRACK 08 AUDIO
TITLE "Начальник Барабанов дал приказ..."
PERFORMER "Песни периода НЭПа"
    INDEX 01 24:07:60
  TRACK 09 AUDIO
TITLE "А когда небо голубое в тучах скроется..."
PERFORMER "Песни периода НЭПа"
    INDEX 01 29:04:44
  TRACK 10 AUDIO
TITLE "Луна озарила зеркальную воду..."
PERFORMER "Песни периода НЭПа"
    INDEX 01 32:00:69
  TRACK 11 AUDIO
TITLE "Нэповские годы..."
PERFORMER "Песни периода НЭПа"
    INDEX 01 35:42:29
  TRACK 12 AUDIO
TITLE "Я помню, носил восьмиклинку..."
PERFORMER "Песни периода НЭПа"
    INDEX 01 39:50:38
  TRACK 13 AUDIO
TITLE "Сегодня встретил друга я..."
PERFORMER "Песни периода НЭПа"
    INDEX 01 42:33:48
FILE "2 ст.flac" WAVE
  TRACK 14 AUDIO
TITLE "Сейчас я дети вам спою нравоучения..."
PERFORMER "Песни периода НЭПа"
    INDEX 01 00:00:00
  TRACK 15 AUDIO
TITLE "Мне хотелось тебя подстеречь..."
PERFORMER "Песни периода НЭПа"
    INDEX 01 02:23:66
  TRACK 16 AUDIO
TITLE "За городской канавой на слободке..."
PERFORMER "Песни периода НЭПа"
    INDEX 01 05:00:03
  TRACK 17 AUDIO
TITLE "А мы швейцару..."
PERFORMER "Песни периода НЭПа"
    INDEX 01 07:17:06
  TRACK 18 AUDIO
TITLE "Осудили судья меня сроком на семь лет"
PERFORMER "Песни периода НЭПа"
    INDEX 01 12:51:49
  TRACK 19 AUDIO
TITLE "Среди топких болот..."
PERFORMER "Песни периода НЭПа"
    INDEX 01 16:27:57
  TRACK 20 AUDIO
TITLE "Инструментал"
PERFORMER "Песни периода НЭПа"
    INDEX 01 24:05:40
  TRACK 21 AUDIO
TITLE "Здравствуй мама, неужели не узнала..."
PERFORMER "Песни периода НЭПа"
    INDEX 01 27:14:02
  TRACK 22 AUDIO
TITLE "Мне нужна теперь девица..."
PERFORMER "Песни периода НЭПа"
    INDEX 01 31:00:73
  TRACK 23 AUDIO
TITLE "Зайдёшь теперь в столовую..."
PERFORMER "Песни периода НЭПа"
    INDEX 01 33:41:04
  TRACK 24 AUDIO
TITLE "Здравствуй мама, неужели не узнала..."
PERFORMER "Песни периода НЭПа"
    INDEX 01 35:34:46
  TRACK 25 AUDIO
TITLE "За бокалом я Вас часто вспоминаю"
PERFORMER "Песни периода НЭПа"
    INDEX 01 39:49:43
  TRACK 26 AUDIO
TITLE "Всюду деньги..."
PERFORMER "Песни периода НЭПа"
    INDEX 01 42:17:70

..........................................................

Это коментарии хуеписца с вт димули сруля
В инт. пишут что он из мп3 может лосл. сделать .. Мудак одним словом спившийся
От ежедневной мастурбации потерял разум .

http://i63.fastpic.ru/big/2014/1117/9b/ccb3cf4426dac406eeb9d8988abe7f9b.jpg
https://yadi.sk/mail/?hash=fkkfrPNlml+cXmNDbMmRpqWdFJGhLvaW2zd7I0R2HjY=

https://yadi.sk/mail/?hash=lmBxtieIXhumeXNok2NvYygvEeAC618Bfd25xTu4TAI=

0

2

http://i63.fastpic.ru/thumb/2014/1117/bb/98b33c11dcfa586a03145aea2fd9fabb.jpeg

качество слабенькое .....но другого нет ...

https://yadi.sk/d/VzdK1jmrcmJCn

http://i65.fastpic.ru/thumb/2014/1117/2c/9f302897e5deeb0087b76905d527642c.jpeg

0


Вы здесь » Tutnet-fufla » Сборники шансон mp3 . Lossless » (24/96) Песни периода НЭПа -1979г. (Одесса)