Это интересно Скрыть

Tutnet-fufla

Объявление

Информация о пользователе

Привет, Гость! Войдите или зарегистрируйтесь.


Вы здесь » Tutnet-fufla » Шансон в форм. lossless » Владимир Щеглов - Памяти Аркадия Северного


Владимир Щеглов - Памяти Аркадия Северного

Сообщений 1 страница 7 из 7

1

Нет парни я не украл данный ревлиз
а приватизировал у спившигося негодяя с вт который
называет себя Админ. муз. груп. ДМИТРИЙ - СРУЛЬ
он банит и оскорбляет польз. проваципуя на оскорбления и мат.... .
Он никогда не был Админ. ВТ это спившийся самозванец.....
дорвавшийся до власти...
Этого негодяя гонят со всех муз. ресурсов.
Это не оговор - это правда..

Парни БольшаЯ просьба Когда скачаете Боре напишите Спасибо за труды
А гондошку димулю прям в этой теме пошлите на х...й

Оцифровано с катушечника - technics 1506

Треклист:

01 Владимир Щеглов - Вступление
02 Владимир Щеглов - Валюха
03 Владимир Щеглов - Начальник Барабанов дал приказ
04 Владимир Щеглов - Красивый город - Ашхабад
05 Владимир Щеглов - Кандюхал пёс
06 Владимир Щеглов - Иду я как-то вечером...
07 Владимир Щеглов - Мне хотелось тебя подстереч...
08 Владимир Щеглов - Так и покатил я...
09 Владимир Щеглов - Сегодня встретил друга я...
10 Владимир Щеглов - Фонарики ночные
11 Владимир Щеглов - Восьмиклинка
12 Владимир Щеглов - Зараза
13 Владимир Щеглов - Зачем вас только бабы балуют...
14 Владимир Щеглов - Я с детства был испорченный ребёнок
15 Владимир Щеглов - У реки на Севере далёком...
16 Владимир Щеглов - У реки на Севере далёком...(повтор и обрыв)

17 Владимир Щеглов - С Вами мальчишки, с Вами пропадёшь...
18 Владимир Щеглов - Пара девиц у дверей ресторана
19 Владимир Щеглов - Частушки
20 Владимир Щеглов - Чёрная моль
21 Владимир Щеглов - Раздалась команда надзирателя...
22 Владимир Щеглов - Седой
23 Владимир Щеглов - Жили мы дружно семейкой весёлой...
24 Владимир Щеглов - Три ковбоя
25 Владимир Щеглов - Раньше были времена...
26 Владимир Щеглов - Письмецо от внука...
27 Владимир Щеглов - Я встретил Розу
28 Владимир Щеглов - А я легавку в счёт не ставлю
29 Владимир Щеглов - Чёрная моль (обрыв)

CUE:

Код:
REM GENRE "Shanson"
REM DATE 1985
REM COMMENT "Оцифровка - Борис 63"
TITLE "Памяти Северного"
PERFORMER "Владимир Щеглов"
FILE "1 ст.flac" WAVE
  TRACK 01 AUDIO
TITLE "Вступление"
PERFORMER "Владимир Щеглов"
    INDEX 01 00:03:25
  TRACK 02 AUDIO
TITLE "Валюха"
PERFORMER "Владимир Щеглов"
    INDEX 01 01:12:65
  TRACK 03 AUDIO
TITLE "Начальник Барабанов дал приказ"
PERFORMER "Владимир Щеглов"
    INDEX 01 04:57:67
  TRACK 04 AUDIO
TITLE "Красивый город - Ашхабад"
PERFORMER "Владимир Щеглов"
    INDEX 01 09:01:11
  TRACK 05 AUDIO
TITLE "Кандюхал пёс"
PERFORMER "Владимир Щеглов"
    INDEX 01 13:25:30
  TRACK 06 AUDIO
TITLE "Иду я как-то вечером..."
PERFORMER "Владимир Щеглов"
    INDEX 01 16:03:60
  TRACK 07 AUDIO
TITLE "Мне хотелось тебя подстереч..."
PERFORMER "Владимир Щеглов"
    INDEX 01 20:13:34
  TRACK 08 AUDIO
TITLE "Так и покатил я..."
PERFORMER "Владимир Щеглов"
    INDEX 01 23:15:72
  TRACK 09 AUDIO
TITLE "Сегодня встретил друга я..."
PERFORMER "Владимир Щеглов"
    INDEX 01 26:32:07
  TRACK 10 AUDIO
TITLE "Фонарики"
PERFORMER "Владимир Щеглов"
    INDEX 01 29:17:22
  TRACK 11 AUDIO
TITLE "Восьмиклинка"
PERFORMER "Владимир Щеглов"
    INDEX 01 31:14:52
  TRACK 12 AUDIO
TITLE "Зараза"
PERFORMER "Владимир Щеглов"
    INDEX 01 34:05:15
  TRACK 13 AUDIO
TITLE "Зачем вас только бабы балуют..."
PERFORMER "Владимир Щеглов"
    INDEX 01 38:15:50
  TRACK 14 AUDIO
TITLE "Я с детства был испорченный ребёнок"
PERFORMER "Владимир Щеглов"
    INDEX 01 40:13:67
  TRACK 15 AUDIO
TITLE "У реки на Севере далёком..."
PERFORMER "Владимир Щеглов"
    INDEX 01 41:53:20
  TRACK 16 AUDIO
TITLE "У реки на Севере далёком...(повтор и обрыв)"
PERFORMER "Владимир Щеглов"
    INDEX 01 43:04:15
FILE "2 ст.flac" WAVE
  TRACK 17 AUDIO
TITLE "С Вами мальчишки, с Вами пропадёшь... "
PERFORMER "Владимир Щеглов"
    INDEX 01 00:02:40
  TRACK 18 AUDIO
TITLE "Пара девиц у дверей ресторана"
PERFORMER "Владимир Щеглов"
    INDEX 01 02:41:36
  TRACK 19 AUDIO
TITLE "Частушки"
PERFORMER "Владимир Щеглов"
    INDEX 01 07:59:64
  TRACK 20 AUDIO
TITLE "Чёрная моль"
PERFORMER "Владимир Щеглов"
    INDEX 01 13:41:58
  TRACK 21 AUDIO
TITLE "Раздалась команда надзирателя..."
PERFORMER "Владимир Щеглов"
    INDEX 01 17:45:25
  TRACK 22 AUDIO
TITLE "Седой"
PERFORMER "Владимир Щеглов"
    INDEX 01 21:06:69
  TRACK 23 AUDIO
TITLE "Жили мы дружно семейкой весёлой..."
PERFORMER "Владимир Щеглов"
    INDEX 01 24:55:43
  TRACK 24 AUDIO
TITLE "Три ковбоя"
PERFORMER "Владимир Щеглов"
    INDEX 01 30:22:52
  TRACK 25 AUDIO
TITLE "Раньше были времена..."
PERFORMER "Владимир Щеглов"
    INDEX 01 34:58:29
  TRACK 26 AUDIO
TITLE "Письмецо от внука..."
PERFORMER "Владимир Щеглов"
    INDEX 01 37:11:07
  TRACK 27 AUDIO
TITLE "Я встретил Розу"
PERFORMER "Владимир Щеглов"
    INDEX 01 40:04:45
  TRACK 28 AUDIO
TITLE "А я легавку в счёт не ставлю"
PERFORMER "Владимир Щеглов"
    INDEX 01 42:05:53
  TRACK 29 AUDIO
TITLE "Чёрная моль (обрыв)"
PERFORMER "Владимир Щеглов"
    INDEX 01 43:55:16

https://yadi.sk/mail/?hash=RPAwVJZaJw/ZJcsv2cqpGRao8XyyyJkRFO8KAux+F3M=

https://yadi.sk/mail/?hash=k+B33/dWV3AedYD6hCtljT459Ef6yqS8IvSvYKZGmIs=

..............................................................

оцифровка с катушки из личной коллекции

С ЭТОЙ КАТУШКИ Я ЕЩЁ НЕ ДЕЛАЛ ОЦИФРОВКУ
На мой взгляд - здесь запись лучше,чем на предыдущей оцифровке!!!

трек лист

01. Интро+Когда небо в тучах скроется
02. Начальник Барабанов
03. Красивый город Ашхабад
04. Кандюхал пес
05. Иду я как-то вечером
06. Мне хотелось тебя подстеречь
07. Осудили судьи
08. Сегодня встретил друга я
09. Фонарики ночные
10. Восьмиклинка
11. Зараза брось
12. Зачем нас бабы балуют
13. Я с детства был испорченный ребенок
14. На севере далеком(обрыв)
15. Мальчишки
16. Пара девиц
17. Мой миленок
18. Черная моль
19. Раздалась команда надзирателя...
20. Седой
21. Жили мы вместе с сестренкой
22. Ковбои
23. Раньше все в холстах ходили...
24. Письмо внука
25. Роза

 
REM COMMENT "Оцифровка Борис63"
REM DATE 1983
REM GENRE "Chanson"
PERFORMER "Владимир Щеглов"
TITLE "Памяти Аркадия Северного "
FILE "Владимир Щеглов 1ст.flac" WAVE
  TRACK 01 AUDIO
    TITLE "Интро+Когда небо в тучах скроется "
    PERFORMER "Владимир Щеглов"
    INDEX 01 00:00:52
  TRACK 02 AUDIO
    TITLE "Начальник Барабанов "
    PERFORMER "Владимир Щеглов"
    INDEX 01 04:54:57
  TRACK 03 AUDIO
    TITLE "Красивый город Ашхабад "
    PERFORMER "Владимир Щеглов"
    INDEX 01 08:58:09
  TRACK 04 AUDIO
    TITLE "Кандюхал пес "
    PERFORMER "Владимир Щеглов"
    INDEX 01 13:22:42
  TRACK 05 AUDIO
    TITLE "Иду я как-то вечером "
    PERFORMER "Владимир Щеглов"
    INDEX 01 15:59:68
  TRACK 06 AUDIO
    TITLE "Мне хотелось тебя подстеречь "
    PERFORMER "Владимир Щеглов"
    INDEX 01 20:08:53
  TRACK 07 AUDIO
    TITLE "Осудили судьи "
    PERFORMER "Владимир Щеглов"
    INDEX 01 23:12:74
  TRACK 08 AUDIO
    TITLE "Сегодня встретил друга я "
    PERFORMER "Владимир Щеглов"
    INDEX 01 26:28:37
  TRACK 09 AUDIO
    TITLE "Фонарики ночные "
    PERFORMER "Владимир Щеглов"
    INDEX 01 29:14:03
  TRACK 10 AUDIO
    TITLE "Восьмиклинка "
    PERFORMER "Владимир Щеглов"
    INDEX 01 31:11:06
  TRACK 11 AUDIO
    TITLE "Зараза брось "
    PERFORMER "Владимир Щеглов"
    INDEX 01 34:01:12
  TRACK 12 AUDIO
    TITLE "Зачем нас бабы балуют "
    PERFORMER "Владимир Щеглов"
    INDEX 01 38:12:08
  TRACK 13 AUDIO
    TITLE "Я с детства был испорченный ребенок "
    PERFORMER "Владимир Щеглов"
    INDEX 01 40:09:58
  TRACK 14 AUDIO
    TITLE "На севере далеком"
    PERFORMER "Владимир Щеглов"
    INDEX 01 41:51:45
FILE "Владимир Щеглов 2 ст.flac" WAVE
  TRACK 15 AUDIO
    TITLE "Мальчишки "
    PERFORMER "Владимир Щеглов"
    INDEX 01 00:00:45
  TRACK 16 AUDIO
    TITLE "Пара девиц "
    PERFORMER "Владимир Щеглов"
    INDEX 01 02:38:34
  TRACK 17 AUDIO
    TITLE "Мой миленок "
    PERFORMER "Владимир Щеглов"
    INDEX 01 07:54:59
  TRACK 18 AUDIO
    TITLE "Черная моль "
    PERFORMER "Владимир Щеглов"
    INDEX 01 13:35:48
  TRACK 19 AUDIO
    TITLE "Раздалась команда надзирателя... "
    PERFORMER "Владимир Щеглов"
    INDEX 01 17:38:72
  TRACK 20 AUDIO
    TITLE "Седой "
    PERFORMER "Владимир Щеглов"
    INDEX 01 20:59:11
  TRACK 21 AUDIO
    TITLE "Жили мы вместе с сестренкой "
    PERFORMER "Владимир Щеглов"
    INDEX 01 24:47:10
  TRACK 22 AUDIO
    TITLE "Ковбои"
    PERFORMER "Владимир Щеглов"
    INDEX 01 30:12:11
  TRACK 23 AUDIO
    TITLE "Раньше все в холстах ходили... "
    PERFORMER "Владимир Щеглов"
    INDEX 01 34:46:45
  TRACK 24 AUDIO
    TITLE "Письмо внука "
    PERFORMER "Владимир Щеглов"
    INDEX 01 36:59:25
  TRACK 25 AUDIO
    TITLE "Роза"
    PERFORMER "Владимир Щеглов"
    INDEX 01 39:52:34

https://yadi.sk/d/FYoow07T77o-9

https://yadi.sk/d/535BfF6n77r-m

0

2

После возвращения из ссылки  Lenin Sity любезно предоставил
данную запись Он сказал что только тут могут внести по ней ясность
т.к Lenin Sity частый гость данного ресурса прошу
его передать слова благодарности людям которые поделились и помогали .



Исполнитель: В.Щеглов
Альбом: Памяти Северного
Год выпуска: 1985
Жанр: Подпольная музыка
Формат: FLAC
Качество: Lossless+mp3
Размер: 781 Mb

Трек-лист:
   01.Вступление+А когда небо голубое (Ю.Брилиантов+В.Щеглов)
   02. Канаю как-то вечером (В.Щеглов)       
   03. Мне хотелось тебя подстеречь (В.Щеглов) 
   04. Осудили судьи (В.Щеглов)               
   05.Сегодня встретил друга я (В.Щеглов)     
   06.Когда фонарики качаются ночные (Т.Афенькина)
   07. Я помню, носил восьмиклинку (В.Щеглов)
   08.Послушай Рейган из Голливуда (С.Ерусланов)
   09.Не смотри ты на меня в упор (В.Щеглов) 
   10.Какая чудная земля (Т.Афенькина)         
   11.Зачем нас только бабы балуют (Т.Афенькина и В.Щеглов)
   12. Здесь в огромной тюрьме (В.Щеглов)     
   13. Я с детства был испорченный (В.Щеглов) 
   14. У реки на севере далеком (Н.Карпов)   
   15. Город под Москвою (В.Щеглов и Т.Афенькина)           
   16. Пара девиц у дверей ресторана (В.Щеглов) 
   17.Мы сиділи с тобою біля яру (В.Щеглов и Ю.Брилиантов)   
   18. Мой милёнок супер стал (Т.Афенькина)     
   19. Кандюхал пёс (Т.Афенькина)               
   20. Не смотрите вы так (Т.Афенькина)         
   21. Мамы нет и папы нет (Т.Афенькина и Ю.Брилиантов)       
   22. А я лягавку в счет не ставлю (Ю.Брилиантов)
   23. Красивый город Ашхабад (В.Щеглов)     
   24. Раздалась команда надзирателя (В.Щеглов) 
   25. Начальник Барабанов дал приказ (В.Щеглов) 
   26. Случай на севере был (Н.Карпов)       
   27. Жили мы в доме вместе с сестрой (Н.Карпов)
   28. Ярко светит луна (Н.Карпов)           
   29. Раньше все в холстах ходили (В.Щеглов)
   30.Здравия желаю милый дед Федот (В.Щеглов) 
   31. Сердце бешено стучит (В.Щеглов)       
   32. Я встретил Розу (Н.Карпов)         
   
https://yadi.sk/d/1e9Mai0g3HETbc

Концерт "Памяти Северного" или "Магаданская малина" в сопровождении ансамбля

В концерте принимали участие:
Владимир Щеглов – вокал, баян
Юрий Брилиантов – вокал
  Татьяна Афенькина – вокал
Николай Карпов  – вокал, гитара
Николай Якубович – ударные
Сергей Ляменков – бас-гитара
Виктор Афенькин – клавишные, аранжировки

Запись проводилась       на квартире Владимира Щеглова   
январь 1985 г., Горловка, запись -     Ю. В. Брилиантов,
С. Я. Ерусланов 

В январе 1985 года Юрий Брилиантов пригласил Станислава Ерусланова к себе на родину в Горловку для записи концерта. Данную запись ошибочно приписывают к записям ансамбля “Черноморская чайка”.
На самом деле Владимиру Щеглову аккомпанировал ансамбль, состоявший из местных музыкантов, ни один одесский музыкант не принимал участия в данной записи. Организатором записи был Юрий Брилиантов.
По словам Ю. В. Брилиантова год записи был умышленно назван более ранний, чтобы “замести следы”.
К моменту записи этого концерта уже было записано несколько концертов Сергея Лаврова (Игоря Соколова).
Запись проходила в течение двух дней, в первый день была проведена небольшая репетиция. Станислав Ерусланов попросил Юрия Брилиантова перенести основную запись на следующий день, чтобы лично приехать на концерт и записать его на свой магнитофон.

Трек №8  исполняет С.Ерусланов - редчайший случай.

Звук предоставил -    ne vazhno г.Сан-Франциско
Помощь -       73dimas Свердловская обл.
При подготовке релиза использовал информацию с сайта  http://www.blat.dp.ua/

ВНИМАНИЕ   НЕНОРМАТИВНАЯ ЛЕКСИКА

0

3

Ну а что вот это Нам ответит сруль саломонович он себя наз Админ. муз гр. вт
борец за сетевую этику и кач. звук . По его словам он только на вт .

=Spoiler написал(а):

Владимир Щеглов - памяти Северного 1985 flac 44/16

01.Интро+ А когда небо голубое в тучах скроется
02. Канаю как-то вечером по городу в потьмах
03.Мне хотелось тебя подстеречь
04.Осудили судьи меня сроком на 7 лет
05.Сегодня встретил друга я
06.Когда фонарики качаются ночные
07.Я помню, носил восьмиклинку
08.Послушай Рейган из Голливуда
09.Не смотри ты на меня в упор(зараза)
10. Какая чудная земля, кругом природа расцвела
11.Зачем нас только бабы балуют
12.Здесь в огромной тюрьме
13.Я с детства был испорченный ребенок
14.У реки на Севере далеком
15.Город под Москвою, паршивенький завод
16.Пара девиц у дверей ресторана
17.Мы сиділи с тобою біля яру
18.Мой милёнок супер стал
19.Кандюхал пёс
20.Не смотрите вы так
21. Мамы нет и папы нет
22.А я лягавку в счет не ставлю
23.Красивый город Ашхабад
24.Раздалась команда надзирателя
25.Начальник Барабанов дал приказ
26.Случай на Севере был в отдаленном районе
27.Интро+Жили мы в доме вместе с сестренкой
28. Ярко светит луна схоронясь за листвою
29.Раньше все в холстах ходили
30.Письмецо от внука+Ответ
31.Сердце бешено стучит
32.Я встретил Розу

Репетиция

01.Мотор+А когда небо голубое в тучах скроется
02.Начальник Барабанов дал приказ
03.Красивый город Ашхабад
04.Кандюхал пёс
05.Иду я как-то вечером

https://yadi.sk/d/VztDH4h83GYS9w?force_show=1

0

4

Ну очень красивые слова Вот трек с этой оц.

https://yadi.sk/d/D81KPVhH3NxihW

А что Вы скажите Господа ...

Уважаемые вы мои,наконец то,сдаётся мне это самая наичистейшая версия Щеглова

взято в пирингованных сетях инт.

0

5

Все благодарности Саша (beloborod)  с вт
[24/192] Владимир Щеглов 1985 "Концерт Памяти Северного или Магаданская малина" Lossless
.
Владимир Щеглов
"Концерт Памяти Северного или Магаданская малина"
Январь 1985 год.

Воспроизведение : Олимп 004
Источник: Катушка
Карта : Steinberg UR 22
Качество : 24/192
Формат : FLAC
Программа: Sound Forge Pro
3,33 ГБ (3 579 723 829 байт)

Внимание, ненормативная лексика.

Сторона 1:

01. Приветствие + А когда небо голубое в тучах скроется… (В. Щеглов)
02. Начальник Барабанов дал приказ… (В. Щеглов)
03. Красивый город Ашхабад… (В. Щеглов)
04. Кандюхал пёс… (Т. Афенькина)
05. Иду я как-то вечером… (Ю. Брилиантов)
06. Мне хотелось тебя подстеречь… (В. Щеглов)
07. Осудили судьи меня сроком на 7 лет… (В. Щеглов)
08. Сегодня встретил друга я… (В. Щеглов)
09. Когда фонарики качаются ночные… (Т. Афенькина)
10. Я помню, носил восьмиклинку… (В. Щеглов)
11. Не смотри ты на меня в упор… (В. Щеглов)
12. Зачем нас только бабы балуют… (Т. Афенькина и В. Щеглов)
13. Я с детства был испорченный ребенок… (В. Щеглов)
14. У реки на севере далеком… (Н. Карпов)

Сторона 2:

01. Город под Москвою, паршивенький завод… (В. Щеглов и Т. Афенькина)
02. Пара девиц у дверей ресторана… (В. Щеглов)
03. Мой милёнок супер стал… (Т. Афенькина)
04. Не смотрите вы так… (Т. Афенькина)
05. Раздалась команда надзирателя… (В. Щеглов)
06. Случай на севере был в отдаленном районе… (Н. Карпов)
07. Жили мы в доме вместе с сестренкой… (Н. Карпов)
08. Ярко светит луна схоронясь за листвою… (Н. Карпов)
09. Раньше все в холстах ходили… (В. Щеглов)
10. Письмецо от внука получил Федот. Внук его как сука в лагере живет.
11. Я встретил Розу… (Н. Карпов)

https://cloud.mail.ru/public/2DdR/MHtgoisoL
https://cloud.mail.ru/public/HF3J/jU1pmDaWT

0

6

Заливается потерпите немного и будет всем счастье

всё готово качайте и слушайте муз. не забывайте поблагодарить человека который поделился

0

7

http://sh.uploads.ru/ToDen.png

0


Вы здесь » Tutnet-fufla » Шансон в форм. lossless » Владимир Щеглов - Памяти Аркадия Северного