Это интересно Скрыть

Tutnet-fufla

Объявление

Информация о пользователе

Привет, Гость! Войдите или зарегистрируйтесь.


Вы здесь » Tutnet-fufla » Шансон в форм. lossless » (24/96) Анатолий Полотно - Ленька Пантелеев (1990) (катушка) Lossless


(24/96) Анатолий Полотно - Ленька Пантелеев (1990) (катушка) Lossless

Сообщений 1 страница 2 из 2

1

Нет парни я не украл данный ревлиз
а приватизировал у спившигося негодяя с вт который
называет себя Админ. муз. груп. ДМИТРИЙ - СРУЛЬ
он банит и оскорбляет польз. проваципуя на оскорбления и мат.... .
Он никогда не был Админ. ВТ это спившийся самозванец.....
дорвавшийся до власти...
Этого негодяя гонят со всех муз. ресурсов.
Это не оговор - это правда..


(24/96) Анатолий Полотно - Ленька Пантелеев (1990) (катушка) Lossless

с катушки из личной коллекции Борис 63

Подача сигнала - катушечник TECHNICS-1506

Качество записи намного лучше, чем в предыдущей оцифровке

Треклист:

01 Анатолий Полотно - Лёнька Пантелеев
02 Анатолий Полотно - Турникет
03 Анатолий Полотно - Ветер северный
04 Анатолий Полотно - Вера Королёва
05 Анатолий Полотно - Девочки-проделочки
06 Анатолий Полотно - Молодо-зелено
07 Анатолий Полотно - Одесский порт
08 Анатолий Полотно - БОМЖ
09 Анатолий Полотно - Корешонок
10 Анатолий Полотно - Амэриканцы из Воронежа
11 Анатолий Полотно - Ледоруб
12 Анатолий Полотно - Дней моих караван

CUE:

Код:
REM GENRE "Shanson"
REM DATE 1990
REM COMMENT "Оцифровка - Борис 63"
TITLE "Привет от Лёньки Пантелеева"
PERFORMER "Анатолий Полотно"
FILE "АНАТОЛИЙ ПОЛОТНО -Ленька Пантелеев-.flac" WAVE
  TRACK 01 AUDIO
TITLE "Лёнька Пантелеев"
PERFORMER "Анатолий Полотно"
    INDEX 01 00:00:00
  TRACK 02 AUDIO
TITLE "Турникет"
PERFORMER "Анатолий Полотно"
    INDEX 01 03:43:49
  TRACK 03 AUDIO
TITLE "Ветер северный"
PERFORMER "Анатолий Полотно"
    INDEX 01 08:39:11
  TRACK 04 AUDIO
TITLE "Вера Королёва"
PERFORMER "Анатолий Полотно"
    INDEX 01 13:01:71
  TRACK 05 AUDIO
TITLE "Девочки-проделочки"
PERFORMER "Анатолий Полотно"
    INDEX 01 16:18:63
  TRACK 06 AUDIO
TITLE "Молодо-зелено"
PERFORMER "Анатолий Полотно"
    INDEX 01 18:22:62
  TRACK 07 AUDIO
TITLE "Одесский порт"
PERFORMER "Анатолий Полотно"
    INDEX 01 21:55:74
  TRACK 08 AUDIO
TITLE "БОМЖ"
PERFORMER "Анатолий Полотно"
    INDEX 01 24:51:19
  TRACK 09 AUDIO
TITLE "Корешонок"
PERFORMER "Анатолий Полотно"
    INDEX 01 29:43:46
  TRACK 10 AUDIO
TITLE "Амэриканцы из Воронежа"
PERFORMER "Анатолий Полотно"
    INDEX 01 32:17:28
  TRACK 11 AUDIO
TITLE "Ледоруб"
PERFORMER "Анатолий Полотно"
    INDEX 01 35:44:00
  TRACK 12 AUDIO
TITLE "Дней моих караван"
PERFORMER "Анатолий Полотно"
    INDEX 01 39:27:48

https://yadi.sk/mail/?hash=8BZHll6exuFDZnf9cjU6+aOIrUI5VstcorO3nuoh2f8=

0

2

Ну и я подниму тему никто не написал Спасибо чел. за его желание поделиться мои поступки не нужно обсуждать я смотрю есть большой покл на вт этого исполнителя . наверно В Сочи солнце напекло в голову ему ...

0


Вы здесь » Tutnet-fufla » Шансон в форм. lossless » (24/96) Анатолий Полотно - Ленька Пантелеев (1990) (катушка) Lossless