Это интересно Скрыть

Tutnet-fufla

Объявление

Информация о пользователе

Привет, Гость! Войдите или зарегистрируйтесь.


Вы здесь » Tutnet-fufla » Шансон в форм. lossless » [24/96] Казан Казиев - Магнитоальбом (1996) Lossless


[24/96] Казан Казиев - Магнитоальбом (1996) Lossless

Сообщений 1 страница 6 из 6

1

Коментарии спившигося негодяя с вт димуле сруля
Я не стану возражать и удалять .если кто захочет послать этого уёб...а на х..й
От себя добавлю тебе гниде никогда не понять песни . спетые этим исполнителем
По этой причине рот свой поганый закрой . сука ...

https://yadi.sk/d/GgLPW165eNJQK

http://i65.fastpic.ru/big/2015/0131/f0/5ab8defcb0c62eca29b24bae55d99ff0.jpg

[24/96] Казан Казиев - Магнитоальбом (1996) Lossless
Итервью
http://cominf.org/node/1166503543

Кассета Ильи, оцифровка Бориса. За что им большая благодарность!
Запись на диктофон-рекордер Zoom H4n c кассетной деки Akai GX-75

http://i63.fastpic.ru/big/2015/0131/a4/42018ca63615bb98a8772f7cebf252a4.png

01 Казан Казиев - Осетинская свадьба
02 Казан Казиев - Моя милая мама
03 Казан Казиев - Седой
04 Казан Казиев - Дожди
05 Казан Казиев - Север-север
06 Казан Казиев - Людка
07 Казан Казиев - Большая перемена
08 Казан Казиев - Моя милая мама
09 Казан Казиев - Укрываясь от ночного ветра
10 Казан Казиев - Королева и шут
11 Казан Казиев - Вышла волга из навеса раннею весной...
12 Казан Казиев - Над деревней Клюевкой
13 Казан Казиев - Белая песня
14 Казан Казиев - Пускай ты выпита другим
15 Казан Казиев - Вдали бушующий камыш

CUE

Код:
REM GENRE "Shanson"
REM DATE 1994
REM COMMENT "Оцифровка - Борис 63"
TITLE "Магнитоальбом"
PERFORMER "Казан Казиев"
FILE "Казиев 1.flac" WAVE
  TRACK 01 AUDIO
TITLE "Осетинская свадьба"
PERFORMER "Казан Казиев"
    INDEX 01 00:00:00
  TRACK 02 AUDIO
TITLE "Моя милая мама"
PERFORMER "Казан Казиев"
    INDEX 01 03:50:34
  TRACK 03 AUDIO
TITLE "Седой"
PERFORMER "Казан Казиев"
    INDEX 01 08:53:03
  TRACK 04 AUDIO
TITLE "Дожди"
PERFORMER "Казан Казиев"
    INDEX 01 13:35:73
  TRACK 05 AUDIO
TITLE "Север-север"
PERFORMER "Казан Казиев"
    INDEX 01 17:05:17
  TRACK 06 AUDIO
TITLE "Людка"
PERFORMER "Казан Казиев"
    INDEX 01 21:35:30
  TRACK 07 AUDIO
TITLE "Большая перемена"
PERFORMER "Казан Казиев"
    INDEX 01 25:17:28
FILE "Казиев 2.flac" WAVE
  TRACK 08 AUDIO
TITLE "Моя милая мама"
PERFORMER "Казан Казиев"
    INDEX 01 00:00:00
  TRACK 09 AUDIO
TITLE "Укрываясь от ночного ветра"
PERFORMER "Казан Казиев"
    INDEX 01 05:03:33
  TRACK 10 AUDIO
TITLE "Королева и шут"
PERFORMER "Казан Казиев"
    INDEX 01 09:03:00
  TRACK 11 AUDIO
TITLE "Вышла волга из навеса раннею весной..."
PERFORMER "Казан Казиев"
    INDEX 01 14:43:00
  TRACK 12 AUDIO
TITLE "Над деревней Клюевкой"
PERFORMER "Казан Казиев"
    INDEX 01 16:05:43
  TRACK 13 AUDIO
TITLE "Белая песня"
PERFORMER "Казан Казиев"
    INDEX 01 19:32:65
  TRACK 14 AUDIO
TITLE "Пускай ты выпита другим"
PERFORMER "Казан Казиев"
    INDEX 01 24:30:71
  TRACK 15 AUDIO
TITLE "Вдали бушующий камыш"
PERFORMER "Казан Казиев"
    INDEX 01 27:14:50

https://yadi.sk/mail/?hash=HIdLCpjL8D1vWqM8dcMybWOk4mjMF52j1dlSwEmi/lo=&uid=252251247

0

2

Госпаодин Админ муз. груп. с вт Сруль саломонович Давай зайдём на один форум я потом дом ссылку и ты представься там Админ. муз форума и я напишу пару слов и посмотрим как на х..й тебя ублюдка пошлют .... там ... Ты быдло и это все знают ... Как пели песни во дваоре ????
Дай эту песню полностью и немного расскажи про неё .... А я раскажу как её пели в Д.В.К
ты хоть знаешь что это такое ??? сука поганая ....

0

3

Казбек Константинович Казиев - настоящее имя известного сейчас кавказского исполнителя Казана Казиева.

Казбек Казиев («Седой») - его наиболее известные песни: «Седой», «Песня преступного
мира», «Это было весной», «Север-север». А так же – исполнитель под именем - Руслан Садыков. И еще один осетинский дворовый исполнитель - Александр Коренюгин (он же Саня, он же Саша-осетин). Все трое они очень дружили, а так же исполняли дворовые песни, и песни, которые писал Руслан Садыков. Их голоса были очень похожи друг на друга.

Изначально Казбек Казиев, Руслан Садыков и Саша Осетин пели и записывали песни под гитару на
одну кассету, просто для себя, все вместе. Голоса их были очень похожи и по тональности и по
акценту. Часто невозможно было различить кто из них поет.

Было три 90-минутных кассеты с записями; Одна кассета была под именем Казбек Казиев; вторая
кассета под именем - Саша Осетин; и третья кассета под именем – Руслан Садыков! После, так и пошла путаница с кассетами, их много раз переписывали, и многие люди предполагали, что это поет один и тот же человек. И до сих пор, хотя Казбек (Казан) Казиев для большой публики не поет, его иногда называют – «Саша Осетин», а Александра Коренюгина путают с Казаном Казиевым.

Казан Казиев родился, вырос и живет до сих пор в Беслане, выступает и поет только лишь для
своих знакомых и друзей, иногда выступает на свадьбах.

Все старые песни в исполнении Казана Казиева были записаны его хорошим другом Русланом
Садыковым, на зоне во Владимире.

0

4

Очень мне хотелось бы услышать мнение тех кто горло рвёт говорит про бл. песню Этот исполнитель что не заслуживает внимания ??? Да вы хоть Спасибо напишите тому кто поделился записью..

Грех не накатить под такое исполнение ...
Это для тех кто понимает ..............

0

5

я не стану удалять сообщения если этого негодяя с вт митю  пошлют тут

0

6

Всем нравится мнение этого господина с вт ...

0


Вы здесь » Tutnet-fufla » Шансон в форм. lossless » [24/96] Казан Казиев - Магнитоальбом (1996) Lossless