Это интересно Скрыть

Tutnet-fufla

Объявление

Информация о пользователе

Привет, Гость! Войдите или зарегистрируйтесь.


Вы здесь » Tutnet-fufla » Шансон в форм. lossless » Группа Бубновый Туз - (магнитоальбом)


Группа Бубновый Туз - (магнитоальбом)

Сообщений 1 страница 4 из 4

1

данный ревлиз
приватизировал у спившигося негодяя с вт который
называет себя Админ. муз. груп. ДМИТРИЙ - СРУЛЬ
он банит и оскорбляет польз. проваципуя на оскорбления и мат.... .
Он никогда не был Админ. ВТ это спившийся самозванец.....
дорвавшийся до власти...
Этого негодяя гонят со всех муз. ресурсов.
Это не оговор - это правда.
.

Все благодарности - Серый из Харькова 
Спасибо .

Гр. Бубновый туз [Lossless]

Исполнитель - Группа Бубновый Туз
Альбом - ??
Год - 199?
формат: flac
оцифровка: с бобины

Цитата:
FILE "Бубновый туз (магнитоальбом).flac" WAVE
TRACK 01 AUDIO
TITLE "На Колыме"
INDEX 01 00:00:00
TRACK 02 AUDIO
TITLE "Ушаночка"
INDEX 01 03:46:52
TRACK 03 AUDIO
TITLE "Гражданин судья, не виновен я..."
INDEX 01 06:42:24
TRACK 04 AUDIO
TITLE "Звали Черным Вороном..."
INDEX 01 10:15:52
TRACK 05 AUDIO
TITLE "Я живу от выдоха до вдоха..."
INDEX 01 13:32:05
TRACK 06 AUDIO
TITLE "Пол неба в губной помаде..."
INDEX 01 18:34:53
TRACK 07 AUDIO
TITLE "Клавиши рояля, золото листвы"
INDEX 01 25:43:09
TRACK 08 AUDIO
TITLE "Морячка"
INDEX 01 29:18:47
TRACK 09 AUDIO
TITLE "Ванинский порт"
INDEX 01 33:00:26

Оцифрованно с катушки из моей личной коллекции.

Магнитофон - Revox B77 MK2.
Звуковая карта Creative SB 5.1 USB

Новая оцифровка в 24/96.

Магнитофон - Revox B77 MK2.
Звуковая карта -PreSonus Firestudio Mobile

https://yadi.sk/d/hsHXePAG2HwcB

0

2

[audio]http://d.zaix.ru/4L9W.mp3[/audio]

0

3

Этот альбом взят с дружественного сайта
вся сетевая этика соблюдена Все благодарности
Виктору и Роме за альбом.

Исполнитель: Бубновый Туз гр.
Альбом: Магнитоальбом
Жанр: Шансон
Дата: 1990-e
Формат: MP3
Качество: 256-320 kbps
Размер архива: 50.3 мб

https://yadi.sk/d/GC8WTri43P92T9

http://s2.uploads.ru/RVlFL.png

Треклист:

01   Вступление + На Колыме
02   Ушаночка
03   Гражданин судья!
04   Морячка
05   Представление музыкантов
06   Ванинский порт (обрыв)
07   Вступление + Ванинский порт
08   Бубновый туз

0

4

Нет парни не хочу не гов..к не оскорблений мне понять хочется Вы уж потратьте немного времени и поясните малограмотному
Это два трека одной песни Оба с обрывом .. Хотелось бы услышать ответ господина Админа муз гр. с вт сруля саломоновича

http://sa.uploads.ru/0Jcmd.png

0


Вы здесь » Tutnet-fufla » Шансон в форм. lossless » Группа Бубновый Туз - (магнитоальбом)