Это интересно Скрыть

Tutnet-fufla

Объявление

Информация о пользователе

Привет, Гость! Войдите или зарегистрируйтесь.


Вы здесь » Tutnet-fufla » Шансон в форм. lossless » (24/96) Иван Кучин - Крестовая печать 1998 lossless


(24/96) Иван Кучин - Крестовая печать 1998 lossless

Сообщений 1 страница 5 из 5

1

(24/96) Иван Кучин - Крестовая печать (Полное собрание сочинений - часть 3) 1998 lossless

Оцифровка с кассеты Борис 63
Спасибо

http://i57.fastpic.ru/big/2015/0424/7f/d9a54750a25d79306c1746d3403a7c7f.jpg
Треклист:

01 Иван Кучин - А на чёрных ресницах
02 Иван Кучин - Колечко
03 Иван Кучин - Крестовая печать
04 Иван Кучин - Рецидивист
05 Иван Кучин - Обыкновенная
06 Иван Кучин - Боль
07 Иван Кучин - До свидания, друг
08 Иван Кучин - Ах, январь мой
09 Иван Кучин - Заочница
10 Иван Кучин - На перроне вокзала
11 Иван Кучин - Тихий океан
12 Иван Кучин - Черноокая
13 Иван Кучин - Хрустальная ваза
14 Иван Кучин - Матушка

CUE:

Код:
REM GENRE "Shanson"
REM DATE 1998
REM COMMENT "Оцифровка - Борис 63"
TITLE "Крестовая печать"
PERFORMER "Иван Кучин"
FILE "1 сторона.flac" WAVE
  TRACK 01 AUDIO
TITLE "А на чёрных ресницах"
PERFORMER "Иван Кучин"
    INDEX 01 00:00:00
  TRACK 02 AUDIO
TITLE "Колечко"
PERFORMER "Иван Кучин"
    INDEX 01 03:24:57
  TRACK 03 AUDIO
TITLE "Крестовая печать"
PERFORMER "Иван Кучин"
    INDEX 01 06:52:31
  TRACK 04 AUDIO
TITLE "Рецидивист"
PERFORMER "Иван Кучин"
    INDEX 01 11:06:05
  TRACK 05 AUDIO
TITLE "Обыкновенная"
PERFORMER "Иван Кучин"
    INDEX 01 14:40:25
  TRACK 06 AUDIO
TITLE "Боль"
PERFORMER "Иван Кучин"
    INDEX 01 18:26:45
  TRACK 07 AUDIO
TITLE "До свидания, друг"
PERFORMER "Иван Кучин"
    INDEX 01 22:51:28
FILE "2 сторона.flac" WAVE
  TRACK 08 AUDIO
TITLE "Ах, январь мой"
PERFORMER "Иван Кучин"
    INDEX 01 00:00:00
  TRACK 09 AUDIO
TITLE "Заочница"
PERFORMER "Иван Кучин"
    INDEX 01 02:23:24
  TRACK 10 AUDIO
TITLE "На перроне вокзала"
PERFORMER "Иван Кучин"
    INDEX 01 05:56:72
  TRACK 11 AUDIO
TITLE "Тихий океан"
PERFORMER "Иван Кучин"
    INDEX 01 09:34:61
  TRACK 12 AUDIO
TITLE "Черноокая"
PERFORMER "Иван Кучин"
    INDEX 01 12:51:44
  TRACK 13 AUDIO
TITLE "Хрустальная ваза"
PERFORMER "Иван Кучин"
    INDEX 01 16:01:57
  TRACK 14 AUDIO
TITLE "Матушка"
PERFORMER "Иван Кучин"
    INDEX 01 21:39:29
     

1 сторона

Скрытый текст:

Для просмотра скрытого текста - войдите или зарегистрируйтесь.


2 сторона

Скрытый текст:

Для просмотра скрытого текста - войдите или зарегистрируйтесь.


Обложки

Скрытый текст:

Для просмотра скрытого текста - войдите или зарегистрируйтесь.

0

2

0

3

Что парни и это не интересно ??????7 Спасибо что рука отвалилась написать тому кто поделился ???7

0

4


Все благодарности - ale2187
Спасибо Алёшка .

Иван Кучин - Крестовая печать
picЖанр: Шансон
Годы : 1998
Производитель дисков: Россия
Аудио кодек: FLAC
Тип рипа: image+.cue
Битрейт аудио: lossless
Размер 372 МБ

http://i60.fastpic.ru/big/2015/0501/d2/2290096705d9ba2d492730d8039ce6d2.png

01. А на черных ресницах (3:26)
02. Колечко (3:27)
03. Крестовая печать (4:14)
04. Рецидивист (3:35)
05. Обыкновенная (3:45)
06. Боль (4:25)
07. До свидания, друг (4:06)
08. Ах, январь мой (2:23)
09. Заочница (3:35)
10. На перроне вокзала (3:37)
11. Тихий океан (3:14)
12. Черноокая (3:10)
13. Хрустальная ваза (5:39)
14. Матушка (4:14)

Продолжительность: 52:50

Скрытый текст:

Для просмотра скрытого текста - войдите или зарегистрируйтесь.

0

5

ребята качайте а то и это скоро продавать будут за деньги на вт

0


Вы здесь » Tutnet-fufla » Шансон в форм. lossless » (24/96) Иван Кучин - Крестовая печать 1998 lossless