Это интересно Скрыть

Tutnet-fufla

Объявление

Информация о пользователе

Привет, Гость! Войдите или зарегистрируйтесь.


Вы здесь » Tutnet-fufla » Цыганский музыкальный фольклор. » Борис Рощин - Цыганские романсы и песни-1992 год (lossless)


Борис Рощин - Цыганские романсы и песни-1992 год (lossless)

Сообщений 1 страница 2 из 2

1

Данную запись любезно предоставил спившийся придурок с вт димуля сруль
смотрящий за приватным клубом
Все благодарности -  Борис 63 ... Спасибо Боря достойное исполнение
.

(24/96) Борис Рощин - Цыганские романсы и песни-1992 год (lossless)

оцифровка с катушки

Треклист:

01 Борис Рощин - Гори, гори моя звезда
02 Борис Рощин - Колокольчики грустно рыдая
03 Борис Рощин - Когда простым и теплым взором
04 Борис Рощин - Чубчик кучерявый
05 Борис Рощин - Как на черный Ерик
06 Борис Рощин - Цыганский быт
07 Борис Рощин - Бонжур, мадам
08 Борис Рощин - Утро туманное
09 Борис Рощин - Нажми водитель тормоз
10 Борис Рощин - Отшумели песни нашего полка
11 Борис Рощин - За цыганской звездой кочевой
12 Борис Рощин - Очарована околдована
13 Борис Рощин - Вечерний звон
14 Борис Рощин - Как грустно печально кругом
15 Борис Рощин - Не пурпурный рубин
16 Борис Рощин - Не уходи, побудь со мной
17 Борис Рощин - Москва златоглавая
18 Борис Рощин - Мы бродили на Пасху
19 Борис Рощин - Выткался на озере алый свет зари
20 Борис Рощин - Ваше Благородие
21 Борис Рощин - Наша жизнь не игра
22 Борис Рощин - Четвертые сутки
23 Борис Рощин - Тьмою здесь все занавешено
24 Борис Рощин - Не надо грустить, господа офицеры
25 Борис Рощин - Где ты звезда моя заветная
26 Борис Рощин - Живет моя красотка
27 Борис Рощин - Где ж вы теперь мои друзья
28 Борис Рощин - Вальс 45 года

CUE:

Код:
REM GENRE "Фолк"
REM DATE 1992
REM COMMENT "Оцифровка - Борис 63"
TITLE "Цыганские романсы и песни"
PERFORMER "Борис Рощин"
FILE "Рощин 1.flac" WAVE
  TRACK 01 AUDIO
TITLE "Гори, гори моя звезда"
PERFORMER "Борис Рощин"
    INDEX 01 00:05:03
  TRACK 02 AUDIO
TITLE "Колокольчики грустно рыдая"
PERFORMER "Борис Рощин"
    INDEX 01 04:49:00
  TRACK 03 AUDIO
TITLE "Когда простым и теплым взором"
PERFORMER "Борис Рощин"
    INDEX 01 08:07:55
  TRACK 04 AUDIO
TITLE "Чубчик кучерявый"
PERFORMER "Борис Рощин"
    INDEX 01 10:28:64
  TRACK 05 AUDIO
TITLE "Как на черный Ерик"
PERFORMER "Борис Рощин"
    INDEX 01 12:53:62
  TRACK 06 AUDIO
TITLE "Цыганский быт"
PERFORMER "Борис Рощин"
    INDEX 01 16:21:38
  TRACK 07 AUDIO
TITLE "Бонжур, мадам"
PERFORMER "Борис Рощин"
    INDEX 01 21:11:14
  TRACK 08 AUDIO
TITLE "Утро туманное"
PERFORMER "Борис Рощин"
    INDEX 01 24:35:27
  TRACK 09 AUDIO
TITLE "Нажми водитель тормоз"
PERFORMER "Борис Рощин"
    INDEX 01 28:27:09
  TRACK 10 AUDIO
TITLE "Отшумели песни нашего полка"
PERFORMER "Борис Рощин"
    INDEX 01 30:24:03
  TRACK 11 AUDIO
TITLE "За цыганской звездой кочевой"
PERFORMER "Борис Рощин"
    INDEX 01 32:47:32
  TRACK 12 AUDIO
TITLE "Очарована околдована"
PERFORMER "Борис Рощин"
    INDEX 01 34:52:11
  TRACK 13 AUDIO
TITLE "Вечерний звон"
PERFORMER "Борис Рощин"
    INDEX 01 38:02:31
  TRACK 14 AUDIO
TITLE "Как грустно печально кругом"
PERFORMER "Борис Рощин"
    INDEX 01 41:45:13
FILE "Рощин 2.flac" WAVE
  TRACK 15 AUDIO
TITLE "Не пурпурный рубин"
PERFORMER "Борис Рощин"
    INDEX 01 00:02:38
  TRACK 16 AUDIO
TITLE "Не уходи, побудь со мной"
PERFORMER "Борис Рощин"
    INDEX 01 03:05:48
  TRACK 17 AUDIO
TITLE "Москва златоглавая"
PERFORMER "Борис Рощин"
    INDEX 01 06:40:37
  TRACK 18 AUDIO
TITLE "Мы бродили на Пасху"
PERFORMER "Борис Рощин"
    INDEX 01 09:48:71
  TRACK 19 AUDIO
TITLE "Выткался на озере алый свет зари"
PERFORMER "Борис Рощин"
    INDEX 01 13:58:61
  TRACK 20 AUDIO
TITLE "Ваше Благородие"
PERFORMER "Борис Рощин"
    INDEX 01 17:16:56
  TRACK 21 AUDIO
TITLE "Наша жизнь не игра"
PERFORMER "Борис Рощин"
    INDEX 01 20:14:41
  TRACK 22 AUDIO
TITLE "Четвертые сутки"
PERFORMER "Борис Рощин"
    INDEX 01 23:03:29
  TRACK 23 AUDIO
TITLE "Тьмою здесь все занавешено"
PERFORMER "Борис Рощин"
    INDEX 01 26:32:33
  TRACK 24 AUDIO
TITLE "Не надо грустить, господа офицеры"
PERFORMER "Борис Рощин"
    INDEX 01 28:16:54
  TRACK 25 AUDIO
TITLE "Где ты звезда моя заветная"
PERFORMER "Борис Рощин"
    INDEX 01 31:33:21
  TRACK 26 AUDIO
TITLE "Живет моя красотка"
PERFORMER "Борис Рощин"
    INDEX 01 34:52:49
  TRACK 27 AUDIO
TITLE "Где ж вы теперь мои друзья"
PERFORMER "Борис Рощин"
    INDEX 01 38:04:29
  TRACK 28 AUDIO
TITLE "Вальс 45 года"
PERFORMER "Борис Рощин"
    INDEX 01 42:38:17

FLAC:

1 сторона

Скрытый текст:

Для просмотра скрытого текста - войдите или зарегистрируйтесь.


2 сторона

Скрытый текст:

Для просмотра скрытого текста - войдите или зарегистрируйтесь.


mp3 -- 320 kbps:

https://yadi.sk/mail/?hash=utOVYXPzDKggNnXJ6MGKFXr2fPKTw0BntWQbzeFBKfg=&uid=252251247

0

2

Что и это не интересно ребята ??? Хоть Спасибо напишите Борису

0


Вы здесь » Tutnet-fufla » Цыганский музыкальный фольклор. » Борис Рощин - Цыганские романсы и песни-1992 год (lossless)