Оцифровка - Cyppress Hill
Спасибо

[24/96] Аркадий Северный с ансамблем Крестные отцы (Южный вариант) WAV

Жанр: Подпольная песня
Носитель: MB
Год выпуска: 1976
Лейбл: Самиздат
Страна-производитель:СССР
Аудио кодек: WAV
Тип рипа: track
Формат записи: 24/96
Формат раздачи: 24/96
Продолжительность: 47:38+46:02
Размер: 1,53 Гб +1,48 Гб
Устройство воспроизведения: Ростов-105С1
АЦП: Juli@+MC_Aiwa ADF850(в качестве усилителя и регулятора сигнала)
Программа-"шифровщик":SF10
Обработка: Без обработки

Сторона А:
01.ВИА "Крёстные Отцы" (Магаданцы) - Век живи...
02.Аркадий Северный - Вступление Аркадия Северного + Чёрная шляпа
03.Аркадий Северный - Чёрная роза
04.Аркадий Северный - В парке над рекой
05.Аркадий Северный - Твоя фотография
06.Аркадий Северный - Звёзды зажигаются хрустальные
07.Аркадий Северный - Сигарета(обрыв?)
08.Аркадий Северный - Паренёк из Одессы
09.ВИА "Крёстные Отцы" (Магаданцы) - Я беру гитару в руки
10.ВИА "Крёстные Отцы" (Магаданцы) - Голубка
11.Аркадий Северный - Выпьем за мировую
12.Аркадий Северный - Осень(смикшир)

Сторона Б:
13.Аркадий Северный - Осень
14.Аркадий Северный - Когда с тобой мы встретились
15.Аркадий Северный - Голубое такси
16.Аркадий Северный - Сладка ягода
17.Аркадий Северный - Заключение
РЕПЕТИЦИЯ ВИА "Крёстные Отцы" (Магаданцы) ПЕРЕД КОНЦЕРТОМ
18.Инструментал
19.Где-то за лесом избушка стояла...
20.Нашей первой любви наступает конец...
21.Одесский порт...
22.Ваше благородие, госпожа Удача...
23.Я спросил у ясеня...
24.В середине лета высыхают губы.../Люба Фигельман/
25.Надену я черную шляпу...

Скачать:

WAV (24bit/96kHz):

Скрытый текст:

Для просмотра скрытого текста - войдите или зарегистрируйтесь.

Скрытый текст:

Для просмотра скрытого текста - войдите или зарегистрируйтесь.


mp3--320kbps:
Кастрат от спившигося негодяя с вт  димуле сруля....

https://yadi.sk/mail/?hash=Ry6RhVGIkvNc2kRm89CahhAkezF+Cs9hzyHYwUTMuRE=&uid=252251247


Код:
REM GENRE "Городской романс"
REM DATE 1976
REM COMMENT "Оцифровка - Cyppress Hill"
TITLE "Магнитоальбом"
PERFORMER "А.Северный с ансамблем Крестные отцы"
FILE "А.Северный с ансамблем Крестные отцы_1ст.wav" WAVE
  TRACK 01 AUDIO
TITLE "Век живи..."
PERFORMER "Магаданцы"
    INDEX 01 00:12:35
  TRACK 02 AUDIO
TITLE "Вступление"
PERFORMER "Аркадий Северный"
    INDEX 01 02:15:55
  TRACK 03 AUDIO
TITLE "Чёрная шляпа"
PERFORMER "Аркадий Северный"
    INDEX 01 03:01:30
  TRACK 04 AUDIO
TITLE "Чёрная роза"
PERFORMER "Аркадий Северный"
    INDEX 01 06:15:09
  TRACK 05 AUDIO
TITLE "В парке над рекой"
PERFORMER "Аркадий Северный"
    INDEX 01 11:46:68
  TRACK 06 AUDIO
TITLE "Твоя фотография"
PERFORMER "Аркадий Северный"
    INDEX 01 15:45:71
  TRACK 07 AUDIO
TITLE "Звёзды зажигаются хрустальные"
PERFORMER "Аркадий Северный"
    INDEX 01 19:58:03
  TRACK 08 AUDIO
TITLE "Сигарета"
PERFORMER "Аркадий Северный"
    INDEX 01 24:12:12
  TRACK 09 AUDIO
TITLE "Паренёк из Одессы"
PERFORMER "Магаданцы"
    INDEX 01 27:32:12
  TRACK 10 AUDIO
TITLE "Я беру гитару в руки"
PERFORMER "Магаданцы"
    INDEX 01 31:52:36
  TRACK 11 AUDIO
TITLE "Голубка"
PERFORMER "Аркадий Северный"
    INDEX 01 34:11:19
  TRACK 12 AUDIO
TITLE "Выпьем за мировую"
PERFORMER "Аркадий Северный"
    INDEX 01 38:46:71
  TRACK 13 AUDIO
TITLE "Осень (смикшир)"
PERFORMER "Аркадий Северный"
    INDEX 01 43:12:36
FILE "А.Северный с ансамблем Крестные отцы_2ст.wav" WAVE
  TRACK 14 AUDIO
TITLE "Осень "
PERFORMER "Аркадий Северный"
    INDEX 01 00:10:62
  TRACK 15 AUDIO
TITLE "Когда с тобой мы встретились"
PERFORMER "Аркадий Северный"
    INDEX 01 05:43:43
  TRACK 16 AUDIO
TITLE "Голубое такси"
PERFORMER "Аркадий Северный"
    INDEX 01 11:00:09
  TRACK 17 AUDIO
TITLE "Сладка ягода"
PERFORMER "Аркадий Северный"
    INDEX 01 15:08:47
  TRACK 18 AUDIO
TITLE "Заключение"
PERFORMER "Аркадий Северный"
    INDEX 01 17:22:73
  TRACK 19 AUDIO
TITLE "Инструментал"
PERFORMER "Аркадий Северный"
    INDEX 01 18:54:05
  TRACK 20 AUDIO
TITLE "Где-то за лесом избушка стояла..."
PERFORMER "Аркадий Северный"
    INDEX 01 21:22:40
  TRACK 21 AUDIO
TITLE "Нашей первой любви наступает конец..."
PERFORMER "Аркадий Северный"
    INDEX 01 25:23:29
  TRACK 22 AUDIO
TITLE "Одесский порт..."
PERFORMER "Аркадий Северный"
    INDEX 01 30:55:54
  TRACK 23 AUDIO
TITLE "Ваше благородие, госпожа Удача..."
PERFORMER "Аркадий Северный"
    INDEX 01 33:24:14
  TRACK 24 AUDIO
TITLE "Я спросил у ясеня..."
PERFORMER "Аркадий Северный"
    INDEX 01 38:03:39
  TRACK 25 AUDIO
TITLE "В середине лета высыхают губы.../Люба Фигельман/"
PERFORMER "Аркадий Северный"
    INDEX 01 40:44:23
  TRACK 26 AUDIO
TITLE "Надену я черную шляпу..."
PERFORMER "Аркадий Северный"
    INDEX 01 43:44:44